  0
SECTION
  2
HEADER
  9
$ACADVER
  1
AC1018
  9
$ACADMAINTVER
 70
    39
  9
$DWGCODEPAGE
  3
ANSI_1252
  9
$LASTSAVEDBY
  1
fottrem
  9
$INSBASE
 10
0.0
 20
0.0
 30
0.0
  9
$EXTMIN
 10
-91.00811432774199
 20
-1144.958905241865
 30
0.0
  9
$EXTMAX
 10
4036.374090179946
 20
100.2859855676659
 30
0.0
  9
$LIMMIN
 10
0.0
 20
0.0
  9
$LIMMAX
 10
12.0
 20
9.0
  9
$ORTHOMODE
 70
     0
  9
$REGENMODE
 70
     1
  9
$FILLMODE
 70
     1
  9
$QTEXTMODE
 70
     0
  9
$MIRRTEXT
 70
     1
  9
$LTSCALE
 40
1.0
  9
$ATTMODE
 70
     1
  9
$TEXTSIZE
 40
0.2
  9
$TRACEWID
 40
0.05
  9
$TEXTSTYLE
  7
Standard
  9
$CLAYER
  8
0
  9
$CELTYPE
  6
ByBlock
  9
$CECOLOR
 62
   256
  9
$CELTSCALE
 40
1.0
  9
$DISPSILH
 70
     0
  9
$DIMSCALE
 40
1.0
  9
$DIMASZ
 40
18.0
  9
$DIMEXO
 40
0.0625
  9
$DIMDLI
 40
0.38
  9
$DIMRND
 40
0.0
  9
$DIMDLE
 40
0.0
  9
$DIMEXE
 40
0.18
  9
$DIMTP
 40
0.0
  9
$DIMTM
 40
0.0
  9
$DIMTXT
 40
20.0
  9
$DIMCEN
 40
0.09
  9
$DIMTSZ
 40
0.0
  9
$DIMTOL
 70
     0
  9
$DIMLIM
 70
     0
  9
$DIMTIH
 70
     1
  9
$DIMTOH
 70
     1
  9
$DIMSE1
 70
     0
  9
$DIMSE2
 70
     0
  9
$DIMTAD
 70
     0
  9
$DIMZIN
 70
     0
  9
$DIMBLK
  1

  9
$DIMASO
 70
     1
  9
$DIMSHO
 70
     1
  9
$DIMPOST
  1

  9
$DIMAPOST
  1

  9
$DIMALT
 70
     0
  9
$DIMALTD
 70
     2
  9
$DIMALTF
 40
25.4
  9
$DIMLFAC
 40
1.0
  9
$DIMTOFL
 70
     0
  9
$DIMTVP
 40
0.0
  9
$DIMTIX
 70
     0
  9
$DIMSOXD
 70
     0
  9
$DIMSAH
 70
     0
  9
$DIMBLK1
  1

  9
$DIMBLK2
  1

  9
$DIMSTYLE
  2
Standard
  9
$DIMCLRD
 70
     0
  9
$DIMCLRE
 70
     0
  9
$DIMCLRT
 70
     0
  9
$DIMTFAC
 40
1.0
  9
$DIMGAP
 40
0.09
  9
$DIMJUST
 70
     0
  9
$DIMSD1
 70
     0
  9
$DIMSD2
 70
     0
  9
$DIMTOLJ
 70
     1
  9
$DIMTZIN
 70
     0
  9
$DIMALTZ
 70
     0
  9
$DIMALTTZ
 70
     0
  9
$DIMUPT
 70
     0
  9
$DIMDEC
 70
     0
  9
$DIMTDEC
 70
     0
  9
$DIMALTU
 70
     2
  9
$DIMALTTD
 70
     2
  9
$DIMTXSTY
  7
Standard
  9
$DIMAUNIT
 70
     0
  9
$DIMADEC
 70
     0
  9
$DIMALTRND
 40
0.0
  9
$DIMAZIN
 70
     0
  9
$DIMDSEP
 70
    46
  9
$DIMATFIT
 70
     3
  9
$DIMFRAC
 70
     0
  9
$DIMLDRBLK
  1

  9
$DIMLUNIT
 70
     2
  9
$DIMLWD
 70
    -2
  9
$DIMLWE
 70
    -2
  9
$DIMTMOVE
 70
     0
  9
$LUNITS
 70
     2
  9
$LUPREC
 70
     4
  9
$SKETCHINC
 40
0.1
  9
$FILLETRAD
 40
0.5
  9
$AUNITS
 70
     0
  9
$AUPREC
 70
     0
  9
$MENU
  1
.
  9
$ELEVATION
 40
0.0
  9
$PELEVATION
 40
0.0
  9
$THICKNESS
 40
0.0
  9
$LIMCHECK
 70
     0
  9
$CHAMFERA
 40
0.5
  9
$CHAMFERB
 40
0.5
  9
$CHAMFERC
 40
1.0
  9
$CHAMFERD
 40
0.0
  9
$SKPOLY
 70
     0
  9
$TDCREATE
 40
2453353.800459155
  9
$TDUCREATE
 40
2453353.717125822
  9
$TDUPDATE
 40
4911472.150322963
  9
$TDUUPDATE
 40
4911472.06698963
  9
$TDINDWG
 40
4881704.058228148
  9
$TDUSRTIMER
 40
4881704.058228148
  9
$USRTIMER
 70
     1
  9
$ANGBASE
 50
0.0
  9
$ANGDIR
 70
     0
  9
$PDMODE
 70
     0
  9
$PDSIZE
 40
0.0
  9
$PLINEWID
 40
9.0
  9
$SPLFRAME
 70
     0
  9
$SPLINETYPE
 70
     6
  9
$SPLINESEGS
 70
     8
  9
$HANDSEED
  5
5C49
  9
$SURFTAB1
 70
     6
  9
$SURFTAB2
 70
     6
  9
$SURFTYPE
 70
     6
  9
$SURFU
 70
     6
  9
$SURFV
 70
     6
  9
$UCSBASE
  2

  9
$UCSNAME
  2

  9
$UCSORG
 10
0.0
 20
0.0
 30
0.0
  9
$UCSXDIR
 10
1.0
 20
0.0
 30
0.0
  9
$UCSYDIR
 10
0.0
 20
1.0
 30
0.0
  9
$UCSORTHOREF
  2

  9
$UCSORTHOVIEW
 70
     0
  9
$UCSORGTOP
 10
0.0
 20
0.0
 30
0.0
  9
$UCSORGBOTTOM
 10
0.0
 20
0.0
 30
0.0
  9
$UCSORGLEFT
 10
0.0
 20
0.0
 30
0.0
  9
$UCSORGRIGHT
 10
0.0
 20
0.0
 30
0.0
  9
$UCSORGFRONT
 10
0.0
 20
0.0
 30
0.0
  9
$UCSORGBACK
 10
0.0
 20
0.0
 30
0.0
  9
$PUCSBASE
  2

  9
$PUCSNAME
  2

  9
$PUCSORG
 10
0.0
 20
0.0
 30
0.0
  9
$PUCSXDIR
 10
1.0
 20
0.0
 30
0.0
  9
$PUCSYDIR
 10
0.0
 20
1.0
 30
0.0
  9
$PUCSORTHOREF
  2

  9
$PUCSORTHOVIEW
 70
     0
  9
$PUCSORGTOP
 10
0.0
 20
0.0
 30
0.0
  9
$PUCSORGBOTTOM
 10
0.0
 20
0.0
 30
0.0
  9
$PUCSORGLEFT
 10
0.0
 20
0.0
 30
0.0
  9
$PUCSORGRIGHT
 10
0.0
 20
0.0
 30
0.0
  9
$PUCSORGFRONT
 10
0.0
 20
0.0
 30
0.0
  9
$PUCSORGBACK
 10
0.0
 20
0.0
 30
0.0
  9
$USERI1
 70
     0
  9
$USERI2
 70
     0
  9
$USERI3
 70
     0
  9
$USERI4
 70
     0
  9
$USERI5
 70
     0
  9
$USERR1
 40
0.0
  9
$USERR2
 40
0.0
  9
$USERR3
 40
0.0
  9
$USERR4
 40
0.0
  9
$USERR5
 40
0.0
  9
$WORLDVIEW
 70
     1
  9
$SHADEDGE
 70
     3
  9
$SHADEDIF
 70
    70
  9
$TILEMODE
 70
     1
  9
$MAXACTVP
 70
    64
  9
$PINSBASE
 10
0.0
 20
0.0
 30
0.0
  9
$PLIMCHECK
 70
     0
  9
$PEXTMIN
 10
0.0
 20
0.0
 30
0.0
  9
$PEXTMAX
 10
0.0
 20
0.0
 30
0.0
  9
$PLIMMIN
 10
0.0
 20
0.0
  9
$PLIMMAX
 10
0.0
 20
0.0
  9
$UNITMODE
 70
     0
  9
$VISRETAIN
 70
     1
  9
$PLINEGEN
 70
     0
  9
$PSLTSCALE
 70
     1
  9
$TREEDEPTH
 70
  3020
  9
$CMLSTYLE
  2
Standard
  9
$CMLJUST
 70
     0
  9
$CMLSCALE
 40
1.0
  9
$PROXYGRAPHICS
 70
     1
  9
$MEASUREMENT
 70
     0
  9
$CELWEIGHT
370
    -1
  9
$ENDCAPS
280
     0
  9
$JOINSTYLE
280
     0
  9
$LWDISPLAY
290
     0
  9
$INSUNITS
 70
     0
  9
$HYPERLINKBASE
  1

  9
$STYLESHEET
  1

  9
$XEDIT
290
     0
  9
$CEPSNTYPE
380
     0
  9
$PSTYLEMODE
290
     1
  9
$FINGERPRINTGUID
  2
{36351AB7-EB19-4011-828F-20DA59582093}
  9
$VERSIONGUID
  2
{FAEB1C32-E019-11D5-929B-00C0DF256EC4}
  9
$EXTNAMES
290
     1
  9
$PSVPSCALE
 40
0.0
  9
$OLESTARTUP
290
     0
  9
$SORTENTS
280
   127
  9
$INDEXCTL
280
     0
  9
$HIDETEXT
280
     1
  9
$XCLIPFRAME
290
     0
  9
$HALOGAP
280
     0
  9
$OBSCOLOR
 70
   257
  9
$OBSLTYPE
280
     0
  9
$INTERSECTIONDISPLAY
280
     0
  9
$INTERSECTIONCOLOR
 70
   257
  9
$DIMASSOC
280
     2
  9
$PROJECTNAME
  1

  0
ENDSEC
  0
SECTION
  2
CLASSES
  0
CLASS
  1
ACDBDICTIONARYWDFLT
  2
AcDbDictionaryWithDefault
  3
ObjectDBX Classes
 90
        0
 91
        3
280
     0
281
     0
  0
CLASS
  1
ACDBPLACEHOLDER
  2
AcDbPlaceHolder
  3
ObjectDBX Classes
 90
        0
 91
        1
280
     0
281
     0
  0
CLASS
  1
LAYOUT
  2
AcDbLayout
  3
ObjectDBX Classes
 90
        0
 91
        1
280
     0
281
     0
  0
CLASS
  1
DICTIONARYVAR
  2
AcDbDictionaryVar
  3
ObjectDBX Classes
 90
        0
 91
        3
280
     0
281
     0
  0
CLASS
  1
TABLESTYLE
  2
AcDbTableStyle
  3
ObjectDBX Classes
 90
     2047
 91
        3
280
     0
281
     0
  0
ENDSEC
  0
SECTION
  2
TABLES
  0
TABLE
  2
VPORT
  5
8
330
0
100
AcDbSymbolTable
 70
     2
  0
VPORT
  5
97
330
8
100
AcDbSymbolTableRecord
100
AcDbViewportTableRecord
  2
*Active
 70
     0
 10
0.0
 20
0.0
 11
1.0
 21
1.0
 12
1051.306293390587
 22
-575.3998573124979
 13
0.0
 23
0.0
 14
0.5
 24
0.5
 15
0.5
 25
0.5
 16
0.0
 26
0.0
 36
1.0
 17
0.0
 27
0.0
 37
0.0
 40
4543.18243179488
 41
1.972972972850329
 42
50.0
 43
0.0
 44
0.0
 50
0.0
 51
0.0
 71
    16
 72
   100
 73
     1
 74
     3
 75
     0
 76
     0
 77
     0
 78
     0
281
     0
 65
     1
110
0.0
120
0.0
130
0.0
111
1.0
121
0.0
131
0.0
112
0.0
122
1.0
132
0.0
 79
     0
146
0.0
  0
ENDTAB
  0
TABLE
  2
LTYPE
  5
5
330
0
100
AcDbSymbolTable
 70
     1
  0
LTYPE
  5
14
330
5
100
AcDbSymbolTableRecord
100
AcDbLinetypeTableRecord
  2
ByBlock
 70
     0
  3

 72
    65
 73
     0
 40
0.0
  0
LTYPE
  5
15
330
5
100
AcDbSymbolTableRecord
100
AcDbLinetypeTableRecord
  2
ByLayer
 70
     0
  3

 72
    65
 73
     0
 40
0.0
  0
LTYPE
  5
16
330
5
100
AcDbSymbolTableRecord
100
AcDbLinetypeTableRecord
  2
Continuous
 70
     0
  3
Default Line
 72
    65
 73
     0
 40
0.0
  0
ENDTAB
  0
TABLE
  2
LAYER
  5
2
330
0
100
AcDbSymbolTable
 70
     4
  0
LAYER
  5
10
330
2
100
AcDbSymbolTableRecord
100
AcDbLayerTableRecord
  2
0
 70
     0
 62
     7
  6
Continuous
370
    -3
390
F
  0
LAYER
  5
13D2
330
2
100
AcDbSymbolTableRecord
100
AcDbLayerTableRecord
  2
DEFPOINTS
 70
     0
 62
    -7
  6
Continuous
290
     0
370
    -3
390
F
  0
LAYER
  5
1539
330
2
100
AcDbSymbolTableRecord
100
AcDbLayerTableRecord
  2
Masse
 70
     0
 62
    -3
  6
Continuous
370
    -3
390
F
  0
LAYER
  5
15DD
330
2
100
AcDbSymbolTableRecord
100
AcDbLayerTableRecord
  2
Bedienraum
 70
     0
 62
     2
  6
Continuous
370
    -3
390
F
  0
ENDTAB
  0
TABLE
  2
STYLE
  5
3
330
0
100
AcDbSymbolTable
 70
     1
  0
STYLE
  5
11
330
3
100
AcDbSymbolTableRecord
100
AcDbTextStyleTableRecord
  2
Standard
 70
     0
 40
0.0
 41
1.0
 50
0.0
 71
     0
 42
0.2
  3
txt
  4

  0
ENDTAB
  0
TABLE
  2
VIEW
  5
6
330
0
100
AcDbSymbolTable
 70
     0
  0
ENDTAB
  0
TABLE
  2
UCS
  5
7
330
0
100
AcDbSymbolTable
 70
     0
  0
ENDTAB
  0
TABLE
  2
APPID
  5
9
330
0
100
AcDbSymbolTable
 70
     1
  0
APPID
  5
12
330
9
100
AcDbSymbolTableRecord
100
AcDbRegAppTableRecord
  2
ACAD
 70
     0
  0
ENDTAB
  0
TABLE
  2
DIMSTYLE
  5
A
330
0
100
AcDbSymbolTable
 70
     1
100
AcDbDimStyleTable
  0
DIMSTYLE
105
27
102
{ACAD_REACTORS
330
153A
330
158F
330
159C
330
15A9
330
15B6
330
15D0
330
15E3
102
}
330
A
100
AcDbSymbolTableRecord
100
AcDbDimStyleTableRecord
  2
Standard
 70
     0
340
11
  0
ENDTAB
  0
TABLE
  2
BLOCK_RECORD
  5
1
330
0
100
AcDbSymbolTable
 70
    79
  0
BLOCK_RECORD
  5
1F
330
1
100
AcDbSymbolTableRecord
100
AcDbBlockTableRecord
  2
*Model_Space
340
22
  0
BLOCK_RECORD
  5
73
330
1
100
AcDbSymbolTableRecord
100
AcDbBlockTableRecord
  2
*Paper_Space
340
74
  0
BLOCK_RECORD
  5
25
330
1
100
AcDbSymbolTableRecord
100
AcDbBlockTableRecord
  2
2
340
0
  0
BLOCK_RECORD
  5
2E
330
1
100
AcDbSymbolTableRecord
100
AcDbBlockTableRecord
  2
11
340
0
  0
BLOCK_RECORD
  5
5912
330
1
100
AcDbSymbolTableRecord
100
AcDbBlockTableRecord
  2
8
340
0
  0
BLOCK_RECORD
  5
68
330
1
100
AcDbSymbolTableRecord
100
AcDbBlockTableRecord
  2
3
340
0
  0
BLOCK_RECORD
  5
71
330
1
100
AcDbSymbolTableRecord
100
AcDbBlockTableRecord
  2
23
340
0
  0
BLOCK_RECORD
  5
7A
330
1
100
AcDbSymbolTableRecord
100
AcDbBlockTableRecord
  2
20
340
0
  0
BLOCK_RECORD
  5
88
330
1
100
AcDbSymbolTableRecord
100
AcDbBlockTableRecord
  2
21
340
0
  0
BLOCK_RECORD
  5
9B
330
1
100
AcDbSymbolTableRecord
100
AcDbBlockTableRecord
  2
25
340
0
  0
BLOCK_RECORD
  5
A4
330
1
100
AcDbSymbolTableRecord
100
AcDbBlockTableRecord
  2
6
340
0
  0
BLOCK_RECORD
  5
B2
330
1
100
AcDbSymbolTableRecord
100
AcDbBlockTableRecord
  2
77
340
0
  0
BLOCK_RECORD
  5
BB
330
1
100
AcDbSymbolTableRecord
100
AcDbBlockTableRecord
  2
26
340
0
  0
BLOCK_RECORD
  5
2E8
330
1
100
AcDbSymbolTableRecord
100
AcDbBlockTableRecord
  2
15
340
0
  0
BLOCK_RECORD
  5
2F1
330
1
100
AcDbSymbolTableRecord
100
AcDbBlockTableRecord
  2
102
340
0
  0
BLOCK_RECORD
  5
574
330
1
100
AcDbSymbolTableRecord
100
AcDbBlockTableRecord
  2
7
340
0
  0
BLOCK_RECORD
  5
582
330
1
100
AcDbSymbolTableRecord
100
AcDbBlockTableRecord
  2
122
340
0
  0
BLOCK_RECORD
  5
58B
330
1
100
AcDbSymbolTableRecord
100
AcDbBlockTableRecord
  2
101
340
0
  0
BLOCK_RECORD
  5
599
330
1
100
AcDbSymbolTableRecord
100
AcDbBlockTableRecord
  2
88
340
0
  0
BLOCK_RECORD
  5
5EC
330
1
100
AcDbSymbolTableRecord
100
AcDbBlockTableRecord
  2
9
340
0
  0
BLOCK_RECORD
  5
5FA
330
1
100
AcDbSymbolTableRecord
100
AcDbBlockTableRecord
  2
5
340
0
  0
BLOCK_RECORD
  5
603
330
1
100
AcDbSymbolTableRecord
100
AcDbBlockTableRecord
  2
22
340
0
  0
BLOCK_RECORD
  5
60C
330
1
100
AcDbSymbolTableRecord
100
AcDbBlockTableRecord
  2
19
340
0
  0
BLOCK_RECORD
  5
61A
330
1
100
AcDbSymbolTableRecord
100
AcDbBlockTableRecord
  2
18
340
0
  0
BLOCK_RECORD
  5
66B
330
1
100
AcDbSymbolTableRecord
100
AcDbBlockTableRecord
  2
153
340
0
  0
BLOCK_RECORD
  5
674
330
1
100
AcDbSymbolTableRecord
100
AcDbBlockTableRecord
  2
152
340
0
  0
BLOCK_RECORD
  5
682
330
1
100
AcDbSymbolTableRecord
100
AcDbBlockTableRecord
  2
151
340
0
  0
BLOCK_RECORD
  5
690
330
1
100
AcDbSymbolTableRecord
100
AcDbBlockTableRecord
  2
121
340
0
  0
BLOCK_RECORD
  5
6BC
330
1
100
AcDbSymbolTableRecord
100
AcDbBlockTableRecord
  2
120
340
0
  0
BLOCK_RECORD
  5
70F
330
1
100
AcDbSymbolTableRecord
100
AcDbBlockTableRecord
  2
119
340
0
  0
BLOCK_RECORD
  5
718
330
1
100
AcDbSymbolTableRecord
100
AcDbBlockTableRecord
  2
117
340
0
  0
BLOCK_RECORD
  5
744
330
1
100
AcDbSymbolTableRecord
100
AcDbBlockTableRecord
  2
28
340
0
  0
BLOCK_RECORD
  5
752
330
1
100
AcDbSymbolTableRecord
100
AcDbBlockTableRecord
  2
29
340
0
  0
BLOCK_RECORD
  5
760
330
1
100
AcDbSymbolTableRecord
100
AcDbBlockTableRecord
  2
98
340
0
  0
BLOCK_RECORD
  5
769
330
1
100
AcDbSymbolTableRecord
100
AcDbBlockTableRecord
  2
83
340
0
  0
BLOCK_RECORD
  5
777
330
1
100
AcDbSymbolTableRecord
100
AcDbBlockTableRecord
  2
49
340
0
  0
BLOCK_RECORD
  5
7CA
330
1
100
AcDbSymbolTableRecord
100
AcDbBlockTableRecord
  2
66
340
0
  0
BLOCK_RECORD
  5
7D3
330
1
100
AcDbSymbolTableRecord
100
AcDbBlockTableRecord
  2
86
340
0
  0
BLOCK_RECORD
  5
942
330
1
100
AcDbSymbolTableRecord
100
AcDbBlockTableRecord
  2
84
340
0
  0
BLOCK_RECORD
  5
94B
330
1
100
AcDbSymbolTableRecord
100
AcDbBlockTableRecord
  2
85
340
0
  0
BLOCK_RECORD
  5
977
330
1
100
AcDbSymbolTableRecord
100
AcDbBlockTableRecord
  2
48
340
0
  0
BLOCK_RECORD
  5
980
330
1
100
AcDbSymbolTableRecord
100
AcDbBlockTableRecord
  2
97
340
0
  0
BLOCK_RECORD
  5
989
330
1
100
AcDbSymbolTableRecord
100
AcDbBlockTableRecord
  2
46
340
0
  0
BLOCK_RECORD
  5
9A4
330
1
100
AcDbSymbolTableRecord
100
AcDbBlockTableRecord
  2
100
340
0
  0
BLOCK_RECORD
  5
9AD
330
1
100
AcDbSymbolTableRecord
100
AcDbBlockTableRecord
  2
24
340
0
  0
BLOCK_RECORD
  5
B7E
330
1
100
AcDbSymbolTableRecord
100
AcDbBlockTableRecord
  2
126
340
0
  0
BLOCK_RECORD
  5
13DF
330
1
100
AcDbSymbolTableRecord
100
AcDbBlockTableRecord
  2
*D44
340
0
  0
BLOCK_RECORD
  5
13EB
330
1
100
AcDbSymbolTableRecord
100
AcDbBlockTableRecord
  2
*D45
340
0
  0
BLOCK_RECORD
  5
142E
330
1
100
AcDbSymbolTableRecord
100
AcDbBlockTableRecord
  2
*D46
340
0
  0
BLOCK_RECORD
  5
143B
330
1
100
AcDbSymbolTableRecord
100
AcDbBlockTableRecord
  2
*D47
340
0
  0
BLOCK_RECORD
  5
1448
330
1
100
AcDbSymbolTableRecord
100
AcDbBlockTableRecord
  2
*D48
340
0
  0
BLOCK_RECORD
  5
1455
330
1
100
AcDbSymbolTableRecord
100
AcDbBlockTableRecord
  2
*D49
340
0
  0
BLOCK_RECORD
  5
1462
330
1
100
AcDbSymbolTableRecord
100
AcDbBlockTableRecord
  2
*D50
340
0
  0
BLOCK_RECORD
  5
146F
330
1
100
AcDbSymbolTableRecord
100
AcDbBlockTableRecord
  2
*D51
340
0
  0
BLOCK_RECORD
  5
147C
330
1
100
AcDbSymbolTableRecord
100
AcDbBlockTableRecord
  2
*D52
340
0
  0
BLOCK_RECORD
  5
1489
330
1
100
AcDbSymbolTableRecord
100
AcDbBlockTableRecord
  2
*D53
340
0
  0
BLOCK_RECORD
  5
1496
330
1
100
AcDbSymbolTableRecord
100
AcDbBlockTableRecord
  2
*D54
340
0
  0
BLOCK_RECORD
  5
14A3
330
1
100
AcDbSymbolTableRecord
100
AcDbBlockTableRecord
  2
*D55
340
0
  0
BLOCK_RECORD
  5
14B0
330
1
100
AcDbSymbolTableRecord
100
AcDbBlockTableRecord
  2
*D56
340
0
  0
BLOCK_RECORD
  5
14CB
330
1
100
AcDbSymbolTableRecord
100
AcDbBlockTableRecord
  2
*D57
340
0
  0
BLOCK_RECORD
  5
14D7
330
1
100
AcDbSymbolTableRecord
100
AcDbBlockTableRecord
  2
*D58
340
0
  0
BLOCK_RECORD
  5
14E3
330
1
100
AcDbSymbolTableRecord
100
AcDbBlockTableRecord
  2
*D59
340
0
  0
BLOCK_RECORD
  5
14EF
330
1
100
AcDbSymbolTableRecord
100
AcDbBlockTableRecord
  2
*D60
340
0
  0
BLOCK_RECORD
  5
14FB
330
1
100
AcDbSymbolTableRecord
100
AcDbBlockTableRecord
  2
*D61
340
0
  0
BLOCK_RECORD
  5
1507
330
1
100
AcDbSymbolTableRecord
100
AcDbBlockTableRecord
  2
*D62
340
0
  0
BLOCK_RECORD
  5
1520
330
1
100
AcDbSymbolTableRecord
100
AcDbBlockTableRecord
  2
*D63
340
0
  0
BLOCK_RECORD
  5
152C
330
1
100
AcDbSymbolTableRecord
100
AcDbBlockTableRecord
  2
*D64
340
0
  0
BLOCK_RECORD
  5
1538
330
1
100
AcDbSymbolTableRecord
100
AcDbBlockTableRecord
  2
*D65
340
0
  0
BLOCK_RECORD
  5
1546
330
1
100
AcDbSymbolTableRecord
100
AcDbBlockTableRecord
  2
*D66
340
0
  0
BLOCK_RECORD
  5
1552
330
1
100
AcDbSymbolTableRecord
100
AcDbBlockTableRecord
  2
*D67
340
0
  0
BLOCK_RECORD
  5
155E
330
1
100
AcDbSymbolTableRecord
100
AcDbBlockTableRecord
  2
*D68
340
0
  0
BLOCK_RECORD
  5
156A
330
1
100
AcDbSymbolTableRecord
100
AcDbBlockTableRecord
  2
*D69
340
0
  0
BLOCK_RECORD
  5
1576
330
1
100
AcDbSymbolTableRecord
100
AcDbBlockTableRecord
  2
*D70
340
0
  0
BLOCK_RECORD
  5
1582
330
1
100
AcDbSymbolTableRecord
100
AcDbBlockTableRecord
  2
*D71
340
0
  0
BLOCK_RECORD
  5
158E
330
1
100
AcDbSymbolTableRecord
100
AcDbBlockTableRecord
  2
*D72
340
0
  0
BLOCK_RECORD
  5
159B
330
1
100
AcDbSymbolTableRecord
100
AcDbBlockTableRecord
  2
*D73
340
0
  0
BLOCK_RECORD
  5
15A8
330
1
100
AcDbSymbolTableRecord
100
AcDbBlockTableRecord
  2
*D74
340
0
  0
BLOCK_RECORD
  5
15B5
330
1
100
AcDbSymbolTableRecord
100
AcDbBlockTableRecord
  2
*D75
340
0
  0
BLOCK_RECORD
  5
15C2
330
1
100
AcDbSymbolTableRecord
100
AcDbBlockTableRecord
  2
*D76
340
0
  0
BLOCK_RECORD
  5
15DC
330
1
100
AcDbSymbolTableRecord
100
AcDbBlockTableRecord
  2
*D77
340
0
  0
BLOCK_RECORD
  5
15EF
330
1
100
AcDbSymbolTableRecord
100
AcDbBlockTableRecord
  2
*D78
340
0
  0
ENDTAB
  0
ENDSEC
  0
SECTION
  2
BLOCKS
  0
BLOCK
  5
20
330
1F
100
AcDbEntity
  8
0
100
AcDbBlockBegin
  2
*Model_Space
 70
     0
 71
     0
 10
0.0
 20
0.0
 30
0.0
  3
*Model_Space
  1

  0
ENDBLK
  5
21
330
1F
100
AcDbEntity
  8
0
100
AcDbBlockEnd
  0
BLOCK
  5
75
330
73
100
AcDbEntity
 67
     1
  8
0
100
AcDbBlockBegin
  2
*Paper_Space
 70
     0
 71
     0
 10
0.0
 20
0.0
 30
0.0
  3
*Paper_Space
  1

  0
ENDBLK
  5
76
330
73
100
AcDbEntity
 67
     1
  8
0
100
AcDbBlockEnd
  0
BLOCK
  5
5BAB
330
25
100
AcDbEntity
  8
0
100
AcDbBlockBegin
  2
2
 70
     0
 71
     0
 10
0.0
 20
0.0
 30
0.0
  3
2
  1

  0
ENDBLK
  5
5BAC
330
25
100
AcDbEntity
  8
0
100
AcDbBlockEnd
  0
BLOCK
  5
5BAD
330
2E
100
AcDbEntity
  8
0
100
AcDbBlockBegin
  2
11
 70
     0
 71
     0
 10
0.0
 20
0.0
 30
0.0
  3
11
  1

  0
ENDBLK
  5
5BAE
330
2E
100
AcDbEntity
  8
0
100
AcDbBlockEnd
  0
BLOCK
  5
5BAF
330
5912
100
AcDbEntity
  8
0
100
AcDbBlockBegin
  2
8
 70
     0
 71
     0
 10
0.0
 20
0.0
 30
0.0
  3
8
  1

  0
ENDBLK
  5
5BB0
330
5912
100
AcDbEntity
  8
0
100
AcDbBlockEnd
  0
BLOCK
  5
5BB1
330
68
100
AcDbEntity
  8
0
100
AcDbBlockBegin
  2
3
 70
     0
 71
     0
 10
0.0
 20
0.0
 30
0.0
  3
3
  1

  0
ENDBLK
  5
5BB2
330
68
100
AcDbEntity
  8
0
100
AcDbBlockEnd
  0
BLOCK
  5
5BB3
330
71
100
AcDbEntity
  8
0
100
AcDbBlockBegin
  2
23
 70
     0
 71
     0
 10
0.0
 20
0.0
 30
0.0
  3
23
  1

  0
ENDBLK
  5
5BB4
330
71
100
AcDbEntity
  8
0
100
AcDbBlockEnd
  0
BLOCK
  5
5BB5
330
7A
100
AcDbEntity
  8
0
100
AcDbBlockBegin
  2
20
 70
     0
 71
     0
 10
0.0
 20
0.0
 30
0.0
  3
20
  1

  0
ENDBLK
  5
5BB6
330
7A
100
AcDbEntity
  8
0
100
AcDbBlockEnd
  0
BLOCK
  5
5BB7
330
88
100
AcDbEntity
  8
0
100
AcDbBlockBegin
  2
21
 70
     0
 71
     0
 10
0.0
 20
0.0
 30
0.0
  3
21
  1

  0
ENDBLK
  5
5BB8
330
88
100
AcDbEntity
  8
0
100
AcDbBlockEnd
  0
BLOCK
  5
5BB9
330
9B
100
AcDbEntity
  8
0
100
AcDbBlockBegin
  2
25
 70
     0
 71
     0
 10
0.0
 20
0.0
 30
0.0
  3
25
  1

  0
ENDBLK
  5
5BBA
330
9B
100
AcDbEntity
  8
0
100
AcDbBlockEnd
  0
BLOCK
  5
5BBB
330
A4
100
AcDbEntity
  8
0
100
AcDbBlockBegin
  2
6
 70
     0
 71
     0
 10
0.0
 20
0.0
 30
0.0
  3
6
  1

  0
ENDBLK
  5
5BBC
330
A4
100
AcDbEntity
  8
0
100
AcDbBlockEnd
  0
BLOCK
  5
5BBD
330
B2
100
AcDbEntity
  8
0
100
AcDbBlockBegin
  2
77
 70
     0
 71
     0
 10
0.0
 20
0.0
 30
0.0
  3
77
  1

  0
ENDBLK
  5
5BBE
330
B2
100
AcDbEntity
  8
0
100
AcDbBlockEnd
  0
BLOCK
  5
5BBF
330
BB
100
AcDbEntity
  8
0
100
AcDbBlockBegin
  2
26
 70
     0
 71
     0
 10
0.0
 20
0.0
 30
0.0
  3
26
  1

  0
ENDBLK
  5
5BC0
330
BB
100
AcDbEntity
  8
0
100
AcDbBlockEnd
  0
BLOCK
  5
5BC1
330
2E8
100
AcDbEntity
  8
0
100
AcDbBlockBegin
  2
15
 70
     0
 71
     0
 10
0.0
 20
0.0
 30
0.0
  3
15
  1

  0
ENDBLK
  5
5BC2
330
2E8
100
AcDbEntity
  8
0
100
AcDbBlockEnd
  0
BLOCK
  5
5BC3
330
2F1
100
AcDbEntity
  8
0
100
AcDbBlockBegin
  2
102
 70
     0
 71
     0
 10
0.0
 20
0.0
 30
0.0
  3
102
  1

  0
ENDBLK
  5
5BC4
330
2F1
100
AcDbEntity
  8
0
100
AcDbBlockEnd
  0
BLOCK
  5
5BC5
330
574
100
AcDbEntity
  8
0
100
AcDbBlockBegin
  2
7
 70
     0
 71
     0
 10
0.0
 20
0.0
 30
0.0
  3
7
  1

  0
ENDBLK
  5
5BC6
330
574
100
AcDbEntity
  8
0
100
AcDbBlockEnd
  0
BLOCK
  5
5BC7
330
582
100
AcDbEntity
  8
0
100
AcDbBlockBegin
  2
122
 70
     0
 71
     0
 10
0.0
 20
0.0
 30
0.0
  3
122
  1

  0
ENDBLK
  5
5BC8
330
582
100
AcDbEntity
  8
0
100
AcDbBlockEnd
  0
BLOCK
  5
5BC9
330
58B
100
AcDbEntity
  8
0
100
AcDbBlockBegin
  2
101
 70
     0
 71
     0
 10
0.0
 20
0.0
 30
0.0
  3
101
  1

  0
ENDBLK
  5
5BCA
330
58B
100
AcDbEntity
  8
0
100
AcDbBlockEnd
  0
BLOCK
  5
5BCB
330
599
100
AcDbEntity
  8
0
100
AcDbBlockBegin
  2
88
 70
     0
 71
     0
 10
0.0
 20
0.0
 30
0.0
  3
88
  1

  0
ENDBLK
  5
5BCC
330
599
100
AcDbEntity
  8
0
100
AcDbBlockEnd
  0
BLOCK
  5
5BCD
330
5EC
100
AcDbEntity
  8
0
100
AcDbBlockBegin
  2
9
 70
     0
 71
     0
 10
0.0
 20
0.0
 30
0.0
  3
9
  1

  0
ENDBLK
  5
5BCE
330
5EC
100
AcDbEntity
  8
0
100
AcDbBlockEnd
  0
BLOCK
  5
5BCF
330
5FA
100
AcDbEntity
  8
0
100
AcDbBlockBegin
  2
5
 70
     0
 71
     0
 10
0.0
 20
0.0
 30
0.0
  3
5
  1

  0
ENDBLK
  5
5BD0
330
5FA
100
AcDbEntity
  8
0
100
AcDbBlockEnd
  0
BLOCK
  5
5BD1
330
603
100
AcDbEntity
  8
0
100
AcDbBlockBegin
  2
22
 70
     0
 71
     0
 10
0.0
 20
0.0
 30
0.0
  3
22
  1

  0
ENDBLK
  5
5BD2
330
603
100
AcDbEntity
  8
0
100
AcDbBlockEnd
  0
BLOCK
  5
5BD3
330
60C
100
AcDbEntity
  8
0
100
AcDbBlockBegin
  2
19
 70
     0
 71
     0
 10
0.0
 20
0.0
 30
0.0
  3
19
  1

  0
ENDBLK
  5
5BD4
330
60C
100
AcDbEntity
  8
0
100
AcDbBlockEnd
  0
BLOCK
  5
5BD5
330
61A
100
AcDbEntity
  8
0
100
AcDbBlockBegin
  2
18
 70
     0
 71
     0
 10
0.0
 20
0.0
 30
0.0
  3
18
  1

  0
ENDBLK
  5
5BD6
330
61A
100
AcDbEntity
  8
0
100
AcDbBlockEnd
  0
BLOCK
  5
5BD7
330
66B
100
AcDbEntity
  8
0
100
AcDbBlockBegin
  2
153
 70
     0
 71
     0
 10
0.0
 20
0.0
 30
0.0
  3
153
  1

  0
ENDBLK
  5
5BD8
330
66B
100
AcDbEntity
  8
0
100
AcDbBlockEnd
  0
BLOCK
  5
5BD9
330
674
100
AcDbEntity
  8
0
100
AcDbBlockBegin
  2
152
 70
     0
 71
     0
 10
0.0
 20
0.0
 30
0.0
  3
152
  1

  0
ENDBLK
  5
5BDA
330
674
100
AcDbEntity
  8
0
100
AcDbBlockEnd
  0
BLOCK
  5
5BDB
330
682
100
AcDbEntity
  8
0
100
AcDbBlockBegin
  2
151
 70
     0
 71
     0
 10
0.0
 20
0.0
 30
0.0
  3
151
  1

  0
ENDBLK
  5
5BDC
330
682
100
AcDbEntity
  8
0
100
AcDbBlockEnd
  0
BLOCK
  5
5BDD
330
690
100
AcDbEntity
  8
0
100
AcDbBlockBegin
  2
121
 70
     0
 71
     0
 10
0.0
 20
0.0
 30
0.0
  3
121
  1

  0
ENDBLK
  5
5BDE
330
690
100
AcDbEntity
  8
0
100
AcDbBlockEnd
  0
BLOCK
  5
5BDF
330
6BC
100
AcDbEntity
  8
0
100
AcDbBlockBegin
  2
120
 70
     0
 71
     0
 10
0.0
 20
0.0
 30
0.0
  3
120
  1

  0
ENDBLK
  5
5BE0
330
6BC
100
AcDbEntity
  8
0
100
AcDbBlockEnd
  0
BLOCK
  5
5BE1
330
70F
100
AcDbEntity
  8
0
100
AcDbBlockBegin
  2
119
 70
     0
 71
     0
 10
0.0
 20
0.0
 30
0.0
  3
119
  1

  0
ENDBLK
  5
5BE2
330
70F
100
AcDbEntity
  8
0
100
AcDbBlockEnd
  0
BLOCK
  5
5BE3
330
718
100
AcDbEntity
  8
0
100
AcDbBlockBegin
  2
117
 70
     0
 71
     0
 10
0.0
 20
0.0
 30
0.0
  3
117
  1

  0
ENDBLK
  5
5BE4
330
718
100
AcDbEntity
  8
0
100
AcDbBlockEnd
  0
BLOCK
  5
5BE5
330
744
100
AcDbEntity
  8
0
100
AcDbBlockBegin
  2
28
 70
     0
 71
     0
 10
0.0
 20
0.0
 30
0.0
  3
28
  1

  0
ENDBLK
  5
5BE6
330
744
100
AcDbEntity
  8
0
100
AcDbBlockEnd
  0
BLOCK
  5
5BE7
330
752
100
AcDbEntity
  8
0
100
AcDbBlockBegin
  2
29
 70
     0
 71
     0
 10
0.0
 20
0.0
 30
0.0
  3
29
  1

  0
ENDBLK
  5
5BE8
330
752
100
AcDbEntity
  8
0
100
AcDbBlockEnd
  0
BLOCK
  5
5BE9
330
760
100
AcDbEntity
  8
0
100
AcDbBlockBegin
  2
98
 70
     0
 71
     0
 10
0.0
 20
0.0
 30
0.0
  3
98
  1

  0
ENDBLK
  5
5BEA
330
760
100
AcDbEntity
  8
0
100
AcDbBlockEnd
  0
BLOCK
  5
5BEB
330
769
100
AcDbEntity
  8
0
100
AcDbBlockBegin
  2
83
 70
     0
 71
     0
 10
0.0
 20
0.0
 30
0.0
  3
83
  1

  0
ENDBLK
  5
5BEC
330
769
100
AcDbEntity
  8
0
100
AcDbBlockEnd
  0
BLOCK
  5
5BED
330
777
100
AcDbEntity
  8
0
100
AcDbBlockBegin
  2
49
 70
     0
 71
     0
 10
0.0
 20
0.0
 30
0.0
  3
49
  1

  0
ENDBLK
  5
5BEE
330
777
100
AcDbEntity
  8
0
100
AcDbBlockEnd
  0
BLOCK
  5
5BEF
330
7CA
100
AcDbEntity
  8
0
100
AcDbBlockBegin
  2
66
 70
     0
 71
     0
 10
0.0
 20
0.0
 30
0.0
  3
66
  1

  0
ENDBLK
  5
5BF0
330
7CA
100
AcDbEntity
  8
0
100
AcDbBlockEnd
  0
BLOCK
  5
5BF1
330
7D3
100
AcDbEntity
  8
0
100
AcDbBlockBegin
  2
86
 70
     0
 71
     0
 10
0.0
 20
0.0
 30
0.0
  3
86
  1

  0
ENDBLK
  5
5BF2
330
7D3
100
AcDbEntity
  8
0
100
AcDbBlockEnd
  0
BLOCK
  5
5BF3
330
942
100
AcDbEntity
  8
0
100
AcDbBlockBegin
  2
84
 70
     0
 71
     0
 10
0.0
 20
0.0
 30
0.0
  3
84
  1

  0
ENDBLK
  5
5BF4
330
942
100
AcDbEntity
  8
0
100
AcDbBlockEnd
  0
BLOCK
  5
5BF5
330
94B
100
AcDbEntity
  8
0
100
AcDbBlockBegin
  2
85
 70
     0
 71
     0
 10
0.0
 20
0.0
 30
0.0
  3
85
  1

  0
ENDBLK
  5
5BF6
330
94B
100
AcDbEntity
  8
0
100
AcDbBlockEnd
  0
BLOCK
  5
5BF7
330
977
100
AcDbEntity
  8
0
100
AcDbBlockBegin
  2
48
 70
     0
 71
     0
 10
0.0
 20
0.0
 30
0.0
  3
48
  1

  0
ENDBLK
  5
5BF8
330
977
100
AcDbEntity
  8
0
100
AcDbBlockEnd
  0
BLOCK
  5
5BF9
330
980
100
AcDbEntity
  8
0
100
AcDbBlockBegin
  2
97
 70
     0
 71
     0
 10
0.0
 20
0.0
 30
0.0
  3
97
  1

  0
ENDBLK
  5
5BFA
330
980
100
AcDbEntity
  8
0
100
AcDbBlockEnd
  0
BLOCK
  5
5BFB
330
989
100
AcDbEntity
  8
0
100
AcDbBlockBegin
  2
46
 70
     0
 71
     0
 10
0.0
 20
0.0
 30
0.0
  3
46
  1

  0
ENDBLK
  5
5BFC
330
989
100
AcDbEntity
  8
0
100
AcDbBlockEnd
  0
BLOCK
  5
5BFD
330
9A4
100
AcDbEntity
  8
0
100
AcDbBlockBegin
  2
100
 70
     0
 71
     0
 10
0.0
 20
0.0
 30
0.0
  3
100
  1

  0
ENDBLK
  5
5BFE
330
9A4
100
AcDbEntity
  8
0
100
AcDbBlockEnd
  0
BLOCK
  5
5BFF
330
9AD
100
AcDbEntity
  8
0
100
AcDbBlockBegin
  2
24
 70
     0
 71
     0
 10
0.0
 20
0.0
 30
0.0
  3
24
  1

  0
ENDBLK
  5
5C00
330
9AD
100
AcDbEntity
  8
0
100
AcDbBlockEnd
  0
BLOCK
  5
5C01
330
B7E
100
AcDbEntity
  8
0
100
AcDbBlockBegin
  2
126
 70
     0
 71
     0
 10
0.0
 20
0.0
 30
0.0
  3
126
  1

  0
ENDBLK
  5
5C02
330
B7E
100
AcDbEntity
  8
0
100
AcDbBlockEnd
  0
BLOCK
  5
5C03
330
13DF
100
AcDbEntity
  8
0
100
AcDbBlockBegin
  2
*D44
 70
     1
 71
     0
 10
0.0
 20
0.0
 30
0.0
  3
*D44
  1

  0
POINT
  5
13D5
330
13DF
100
AcDbEntity
  8
DEFPOINTS
  6
ByBlock
 62
     0
100
AcDbPoint
 10
3967.970059
 20
-257.020382
 30
0.0
  0
POINT
  5
13D6
330
13DF
100
AcDbEntity
  8
DEFPOINTS
  6
ByBlock
 62
     0
100
AcDbPoint
 10
4167.970058999999
 20
-257.020382
 30
0.0
  0
LINE
  5
13D7
330
13DF
100
AcDbEntity
  8
0
  6
ByBlock
 62
     0
370
    -2
100
AcDbLine
 10
3967.970059
 20
-256.957882
 30
0.0
 11
3967.970059
 21
-178.1818221490047
 31
0.0
  0
LINE
  5
13D8
330
13DF
100
AcDbEntity
  8
0
  6
ByBlock
 62
     0
370
    -2
100
AcDbLine
 10
4167.970058999999
 20
-256.957882
 30
0.0
 11
4167.970058999999
 21
-178.1818221490047
 31
0.0
  0
LINE
  5
13D9
330
13DF
100
AcDbEntity
  8
0
  6
ByBlock
 62
     0
370
    -2
100
AcDbLine
 10
3968.150059
 20
-178.3618221490047
 30
0.0
 11
4067.341859
 21
-178.3618221490047
 31
0.0
  0
SOLID
  5
13DA
330
13DF
100
AcDbEntity
  8
0
  6
ByBlock
 62
     0
100
AcDbTrace
 10
3967.970059
 20
-178.3618221490047
 30
0.0
 11
3968.150059
 21
-178.3918221490047
 31
0.0
 12
3968.150059
 22
-178.3318221490047
 32
0.0
 13
3968.150059
 23
-178.3318221490047
 33
0.0
  0
LINE
  5
13DB
330
13DF
100
AcDbEntity
  8
0
  6
ByBlock
 62
     0
370
    -2
100
AcDbLine
 10
4167.790058999999
 20
-178.3618221490047
 30
0.0
 11
4068.598258999999
 21
-178.3618221490047
 31
0.0
  0
SOLID
  5
13DC
330
13DF
100
AcDbEntity
  8
0
  6
ByBlock
 62
     0
100
AcDbTrace
 10
4167.970058999999
 20
-178.3618221490047
 30
0.0
 11
4167.790058999999
 21
-178.3918221490047
 31
0.0
 12
4167.790058999999
 22
-178.3318221490047
 32
0.0
 13
4167.790058999999
 23
-178.3318221490047
 33
0.0
  0
MTEXT
  5
13DD
330
13DF
100
AcDbEntity
  8
0
  6
ByBlock
 62
     0
100
AcDbMText
 10
4067.970058999999
 20
-178.3618221490047
 30
0.0
 40
0.18
 41
0.0
 71
     5
 72
     1
  1
\A1;200.0000
 73
     1
 44
1.0
  0
ENDBLK
  5
5C04
330
13DF
100
AcDbEntity
  8
0
100
AcDbBlockEnd
  0
BLOCK
  5
5C05
330
13EB
100
AcDbEntity
  8
0
100
AcDbBlockBegin
  2
*D45
 70
     1
 71
     0
 10
0.0
 20
0.0
 30
0.0
  3
*D45
  1

  0
POINT
  5
13E1
330
13EB
100
AcDbEntity
  8
DEFPOINTS
  6
ByBlock
 62
     0
100
AcDbPoint
 10
3967.970059
 20
-257.020382
 30
0.0
  0
POINT
  5
13E2
330
13EB
100
AcDbEntity
  8
DEFPOINTS
  6
ByBlock
 62
     0
100
AcDbPoint
 10
4167.970058999999
 20
-257.020382
 30
0.0
  0
LINE
  5
13E3
330
13EB
100
AcDbEntity
  8
0
  6
ByBlock
 62
     0
370
    -2
100
AcDbLine
 10
3967.970059
 20
-256.957882
 30
0.0
 11
3967.970059
 21
-178.1818221490047
 31
0.0
  0
LINE
  5
13E4
330
13EB
100
AcDbEntity
  8
0
  6
ByBlock
 62
     0
370
    -2
100
AcDbLine
 10
4167.970058999999
 20
-256.957882
 30
0.0
 11
4167.970058999999
 21
-178.1818221490047
 31
0.0
  0
LINE
  5
13E5
330
13EB
100
AcDbEntity
  8
0
  6
ByBlock
 62
     0
370
    -2
100
AcDbLine
 10
3968.150059
 20
-178.3618221490047
 30
0.0
 11
4067.341859
 21
-178.3618221490047
 31
0.0
  0
SOLID
  5
13E6
330
13EB
100
AcDbEntity
  8
0
  6
ByBlock
 62
     0
100
AcDbTrace
 10
3967.970059
 20
-178.3618221490047
 30
0.0
 11
3968.150059
 21
-178.3918221490047
 31
0.0
 12
3968.150059
 22
-178.3318221490047
 32
0.0
 13
3968.150059
 23
-178.3318221490047
 33
0.0
  0
LINE
  5
13E7
330
13EB
100
AcDbEntity
  8
0
  6
ByBlock
 62
     0
370
    -2
100
AcDbLine
 10
4167.790058999999
 20
-178.3618221490047
 30
0.0
 11
4068.598258999999
 21
-178.3618221490047
 31
0.0
  0
SOLID
  5
13E8
330
13EB
100
AcDbEntity
  8
0
  6
ByBlock
 62
     0
100
AcDbTrace
 10
4167.970058999999
 20
-178.3618221490047
 30
0.0
 11
4167.790058999999
 21
-178.3918221490047
 31
0.0
 12
4167.790058999999
 22
-178.3318221490047
 32
0.0
 13
4167.790058999999
 23
-178.3318221490047
 33
0.0
  0
MTEXT
  5
13E9
330
13EB
100
AcDbEntity
  8
0
  6
ByBlock
 62
     0
100
AcDbMText
 10
4067.970058999999
 20
-178.3618221490047
 30
0.0
 40
0.18
 41
0.0
 71
     5
 72
     1
  1
\A1;200.0000
 73
     1
 44
1.0
  0
ENDBLK
  5
5C06
330
13EB
100
AcDbEntity
  8
0
100
AcDbBlockEnd
  0
BLOCK
  5
5C07
330
142E
100
AcDbEntity
  8
0
100
AcDbBlockBegin
  2
*D46
 70
     1
 71
     0
 10
0.0
 20
0.0
 30
0.0
  3
*D46
  1

  0
MTEXT
  5
1424
330
142E
100
AcDbEntity
  8
0
  6
ByBlock
 62
     0
100
AcDbMText
 10
3935.830179588929
 20
-374.5573021274576
 30
0.0
 40
20.0
 41
0.0
 71
     5
 72
     1
  1
\A1;70%%d
 73
     1
 44
1.0
  0
POINT
  5
1425
330
142E
100
AcDbEntity
  8
DEFPOINTS
  6
ByBlock
 62
     0
100
AcDbPoint
 10
253.3837382722376
 20
-444.9589052418646
 30
0.0
  0
POINT
  5
1426
330
142E
100
AcDbEntity
  8
DEFPOINTS
  6
ByBlock
 62
     0
100
AcDbPoint
 10
4036.374090179943
 20
-444.9589052418648
 30
0.0
  0
POINT
  5
1427
330
142E
100
AcDbEntity
  8
DEFPOINTS
  6
ByBlock
 62
     0
100
AcDbPoint
 10
3967.970059
 20
-257.020382
 30
0.0
  0
POINT
  5
1428
330
142E
100
AcDbEntity
  8
DEFPOINTS
  6
ByBlock
 62
     0
100
AcDbPoint
 10
4036.374090179946
 20
-444.9589052418646
 30
0.0
  0
SOLID
  5
1429
330
142E
100
AcDbEntity
  8
0
  6
ByBlock
 62
     0
100
AcDbTrace
 10
3994.394040134588
 20
-329.6196704767521
 30
0.0
 11
3994.235221923355
 21
-329.7095413606952
 31
0.0
 12
3994.214659377818
 22
-329.6531748660281
 32
0.0
 13
3994.214659377818
 23
-329.6531748660281
 33
0.0
  0
SOLID
  5
142A
330
142E
100
AcDbEntity
  8
0
  6
ByBlock
 62
     0
100
AcDbTrace
 10
3913.632639650742
 20
-444.9589052418646
 30
0.0
 11
3913.60277164356
 21
-444.7788832927946
 31
0.0
 12
3913.66277162743
 22
-444.7789272877122
 32
0.0
 13
3913.66277162743
 23
-444.7789272877122
 33
0.0
  0
ARC
  5
142B
330
142E
100
AcDbEntity
  8
0
  6
ByBlock
 62
     0
370
    -2
100
AcDbCircle
 10
4036.374090179943
 20
-444.9589052418646
 30
0.0
 40
122.7414505292007
100
AcDbArc
 50
110.0840248774559
 51
139.0210470788069
  0
ARC
  5
142C
330
142E
100
AcDbEntity
  8
0
  6
ByBlock
 62
     0
370
    -2
100
AcDbCircle
 10
4036.374090179943
 20
-444.9589052418646
 30
0.0
 40
122.7414505292007
100
AcDbArc
 50
150.5692592687754
 51
179.9159758892204
  0
ENDBLK
  5
5C08
330
142E
100
AcDbEntity
  8
0
100
AcDbBlockEnd
  0
BLOCK
  5
5C09
330
143B
100
AcDbEntity
  8
0
100
AcDbBlockBegin
  2
*D47
 70
     1
 71
     0
 10
0.0
 20
0.0
 30
0.0
  3
*D47
  1

  0
MTEXT
  5
1431
330
143B
100
AcDbEntity
  8
0
  6
ByBlock
 62
     0
100
AcDbMText
 10
3697.820120624861
 20
7.30984887194751
 30
0.0
 40
20.0
 41
0.0
 71
     5
 72
     1
  1
\A1;135%%d
 73
     1
 44
1.0
  0
POINT
  5
1432
330
143B
100
AcDbEntity
  8
DEFPOINTS
  6
ByBlock
 62
     0
100
AcDbPoint
 10
3736.332097421283
 20
100.2859855676658
 30
0.0
  0
POINT
  5
1433
330
143B
100
AcDbEntity
  8
DEFPOINTS
  6
ByBlock
 62
     0
100
AcDbPoint
 10
3904.108315200391
 20
-67.4902322114427
 30
0.0
  0
POINT
  5
1434
330
143B
100
AcDbEntity
  8
DEFPOINTS
  6
ByBlock
 62
     0
100
AcDbPoint
 10
3736.332097421283
 20
100.2859855676659
 30
0.0
  0
POINT
  5
1435
330
143B
100
AcDbEntity
  8
DEFPOINTS
  6
ByBlock
 62
     0
100
AcDbPoint
 10
108.991886327742
 20
100.2859855676658
 30
0.0
  0
SOLID
  5
1436
330
143B
100
AcDbEntity
  8
0
  6
ByBlock
 62
     0
100
AcDbTrace
 10
3635.695452248518
 20
100.2859855676658
 30
0.0
 11
3635.72561321168
 21
100.1060124688396
 31
0.0
 12
3635.665613235674
 22
100.1059588104532
 32
0.0
 13
3635.665613235674
 23
100.1059588104532
 33
0.0
  0
SOLID
  5
1437
330
143B
100
AcDbEntity
  8
0
  6
ByBlock
 62
     0
100
AcDbTrace
 10
3807.49295165881
 20
29.1251313301392
 30
0.0
 11
3807.386752886315
 21
28.97673382099342
 31
0.0
 12
3807.344364438619
 22
29.01919815310761
 32
0.0
 13
3807.344364438619
 23
29.01919815310761
 33
0.0
  0
ARC
  5
1438
330
143B
100
AcDbEntity
  8
0
  6
ByBlock
 62
     0
370
    -2
100
AcDbCircle
 10
3736.332097421283
 20
100.2859855676658
 30
0.0
 40
100.636645172765
100
AcDbArc
 50
180.1024799830059
 51
235.4486110367798
  0
ARC
  5
1439
330
143B
100
AcDbEntity
  8
0
  6
ByBlock
 62
     0
370
    -2
100
AcDbCircle
 10
3736.332097421283
 20
100.2859855676658
 30
0.0
 40
100.636645172765
100
AcDbArc
 50
265.1994747308202
 51
314.8975200169939
  0
ENDBLK
  5
5C0A
330
143B
100
AcDbEntity
  8
0
100
AcDbBlockEnd
  0
BLOCK
  5
5C0B
330
1448
100
AcDbEntity
  8
0
100
AcDbBlockBegin
  2
*D48
 70
     1
 71
     0
 10
0.0
 20
0.0
 30
0.0
  3
*D48
  1

  0
MTEXT
  5
143E
330
1448
100
AcDbEntity
  8
0
  6
ByBlock
 62
     0
100
AcDbMText
 10
3840.476526755344
 20
-106.9598540595204
 30
0.0
 40
20.0
 41
0.0
 71
     5
 72
     1
  1
\A1;154%%d
 73
     1
 44
1.0
  0
POINT
  5
143F
330
1448
100
AcDbEntity
  8
DEFPOINTS
  6
ByBlock
 62
     0
100
AcDbPoint
 10
3967.970059
 20
-257.020382
 30
0.0
  0
POINT
  5
1440
330
1448
100
AcDbEntity
  8
DEFPOINTS
  6
ByBlock
 62
     0
100
AcDbPoint
 10
3904.108315200391
 20
-67.4902322114427
 30
0.0
  0
POINT
  5
1441
330
1448
100
AcDbEntity
  8
DEFPOINTS
  6
ByBlock
 62
     0
100
AcDbPoint
 10
3736.332097421283
 20
100.2859855676659
 30
0.0
  0
POINT
  5
1442
330
1448
100
AcDbEntity
  8
DEFPOINTS
  6
ByBlock
 62
     0
100
AcDbPoint
 10
3904.108315200391
 20
-67.49023221144277
 30
0.0
  0
SOLID
  5
1443
330
1448
100
AcDbEntity
  8
0
  6
ByBlock
 62
     0
100
AcDbTrace
 10
3851.160909458724
 20
-14.5428264697758
 30
0.0
 11
3851.055021997161
 21
-14.69144627156404
 31
0.0
 12
3851.012544626935
 22
-14.64907088933857
 32
0.0
 13
3851.012544626935
 23
-14.64907088933857
 33
0.0
  0
SOLID
  5
1444
330
1448
100
AcDbEntity
  8
0
  6
ByBlock
 62
     0
100
AcDbTrace
 10
3928.01781338576
 20
-138.4493151118679
 30
0.0
 11
3927.856712376039
 21
-138.5350266319037
 31
0.0
 12
3927.837622207904
 22
-138.4781446006408
 32
0.0
 13
3927.837622207904
 23
-138.4781446006408
 33
0.0
  0
ARC
  5
1445
330
1448
100
AcDbEntity
  8
0
  6
ByBlock
 62
     0
370
    -2
100
AcDbCircle
 10
3904.108315200392
 20
-67.49023221144316
 30
0.0
 40
74.87893929233698
100
AcDbArc
 50
135.137732223413
 51
203.101526264181
  0
ARC
  5
1446
330
1448
100
AcDbEntity
  8
0
  6
ByBlock
 62
     0
370
    -2
100
AcDbCircle
 10
3904.108315200392
 20
-67.49023221144316
 30
0.0
 40
74.87893929233698
100
AcDbArc
 50
221.4421339177114
 51
288.4833920759884
  0
ENDBLK
  5
5C0C
330
1448
100
AcDbEntity
  8
0
100
AcDbBlockEnd
  0
BLOCK
  5
5C0D
330
1455
100
AcDbEntity
  8
0
100
AcDbBlockBegin
  2
*D49
 70
     1
 71
     0
 10
0.0
 20
0.0
 30
0.0
  3
*D49
  1

  0
MTEXT
  5
144B
330
1455
100
AcDbEntity
  8
0
  6
ByBlock
 62
     0
100
AcDbMText
 10
276.4257386983259
 20
-358.9649892691184
 30
0.0
 40
20.0
 41
0.0
 71
     5
 72
     1
  1
\A1;150%%d
 73
     1
 44
1.0
  0
POINT
  5
144C
330
1455
100
AcDbEntity
  8
DEFPOINTS
  6
ByBlock
 62
     0
100
AcDbPoint
 10
-91.00811432774194
 20
-246.1241755676658
 30
0.0
  0
POINT
  5
144D
330
1455
100
AcDbEntity
  8
DEFPOINTS
  6
ByBlock
 62
     0
100
AcDbPoint
 10
4036.374090179946
 20
-444.9589052418646
 30
0.0
  0
POINT
  5
144E
330
1455
100
AcDbEntity
  8
DEFPOINTS
  6
ByBlock
 62
     0
100
AcDbPoint
 10
253.3837382722376
 20
-444.9589052418646
 30
0.0
  0
POINT
  5
144F
330
1455
100
AcDbEntity
  8
DEFPOINTS
  6
ByBlock
 62
     0
100
AcDbPoint
 10
253.3837382722376
 20
-444.9589052418645
 30
0.0
  0
SOLID
  5
1450
330
1455
100
AcDbEntity
  8
0
  6
ByBlock
 62
     0
100
AcDbTrace
 10
342.4111911615773
 20
-444.9589052418646
 30
0.0
 11
342.3810092105642
 21
-444.7789356615654
 31
0.0
 12
342.4410091799052
 22
-444.7788750061179
 32
0.0
 13
342.4410091799052
 23
-444.7788750061179
 33
0.0
  0
SOLID
  5
1451
330
1455
100
AcDbEntity
  8
0
  6
ByBlock
 62
     0
100
AcDbTrace
 10
176.283702520077
 20
-400.4451786513046
 30
0.0
 11
176.3478944769112
 21
-400.2743588846562
 31
0.0
 12
176.3998256468061
 22
-400.3044113985834
 32
0.0
 13
176.3998256468061
 23
-400.3044113985834
 33
0.0
  0
ARC
  5
1452
330
1455
100
AcDbEntity
  8
0
  6
ByBlock
 62
     0
370
    -2
100
AcDbCircle
 10
253.3837382722377
 20
-444.9589052418646
 30
0.0
 40
89.0274528893396
100
AcDbArc
 50
0.1158433913841091
 51
58.49449943731214
  0
ARC
  5
1453
330
1455
100
AcDbEntity
  8
0
  6
ByBlock
 62
     0
370
    -2
100
AcDbCircle
 10
253.3837382722377
 20
-444.9589052418646
 30
0.0
 40
89.0274528893396
100
AcDbArc
 50
93.44390839673648
 51
149.8841565001997
  0
ENDBLK
  5
5C0E
330
1455
100
AcDbEntity
  8
0
100
AcDbBlockEnd
  0
BLOCK
  5
5C0F
330
1462
100
AcDbEntity
  8
0
100
AcDbBlockBegin
  2
*D50
 70
     1
 71
     0
 10
0.0
 20
0.0
 30
0.0
  3
*D50
  1

  0
MTEXT
  5
1458
330
1462
100
AcDbEntity
  8
0
  6
ByBlock
 62
     0
100
AcDbMText
 10
154.1757490846055
 20
22.02523941956338
 30
0.0
 40
20.0
 41
0.0
 71
     5
 72
     1
  1
\A1;120%%d
 73
     1
 44
1.0
  0
POINT
  5
1459
330
1462
100
AcDbEntity
  8
DEFPOINTS
  6
ByBlock
 62
     0
100
AcDbPoint
 10
3736.332097421283
 20
100.2859855676658
 30
0.0
  0
POINT
  5
145A
330
1462
100
AcDbEntity
  8
DEFPOINTS
  6
ByBlock
 62
     0
100
AcDbPoint
 10
108.991886327742
 20
100.2859855676658
 30
0.0
  0
POINT
  5
145B
330
1462
100
AcDbEntity
  8
DEFPOINTS
  6
ByBlock
 62
     0
100
AcDbPoint
 10
8.991885999999994
 20
-72.919095
 30
0.0
  0
POINT
  5
145C
330
1462
100
AcDbEntity
  8
DEFPOINTS
  6
ByBlock
 62
     0
100
AcDbPoint
 10
108.991886327742
 20
100.2859855676658
 30
0.0
  0
SOLID
  5
145D
330
1462
100
AcDbEntity
  8
0
  6
ByBlock
 62
     0
100
AcDbTrace
 10
63.80802334874866
 20
22.02523954781005
 30
0.0
 11
63.97897159529057
 21
21.96139053055646
 31
0.0
 12
63.94902336015199
 22
21.90939915423225
 32
0.0
 13
63.94902336015199
 23
21.90939915423225
 33
0.0
  0
SOLID
  5
145E
330
1462
100
AcDbEntity
  8
0
  6
ByBlock
 62
     0
100
AcDbTrace
 10
199.3596119895556
 20
100.2859855676658
 30
0.0
 11
199.3894327071361
 21
100.1059557790113
 31
0.0
 12
199.3294327368924
 22
100.1060155348584
 32
0.0
 13
199.3294327368924
 23
100.1060155348584
 33
0.0
  0
ARC
  5
145F
330
1462
100
AcDbEntity
  8
0
  6
ByBlock
 62
     0
370
    -2
100
AcDbCircle
 10
108.991886327742
 20
100.2859855676658
 30
0.0
 40
90.36772566181365
100
AcDbArc
 50
240.11412517184
 51
282.1281008604351
  0
ARC
  5
1460
330
1462
100
AcDbEntity
  8
0
  6
ByBlock
 62
     0
370
    -2
100
AcDbCircle
 10
108.991886327742
 20
100.2859855676658
 30
0.0
 40
90.36772566181365
100
AcDbArc
 50
311.02960442237
 51
359.8858747197438
  0
ENDBLK
  5
5C10
330
1462
100
AcDbEntity
  8
0
100
AcDbBlockEnd
  0
BLOCK
  5
5C11
330
146F
100
AcDbEntity
  8
0
100
AcDbBlockBegin
  2
*D51
 70
     1
 71
     0
 10
0.0
 20
0.0
 30
0.0
  3
*D51
  1

  0
MTEXT
  5
1465
330
146F
100
AcDbEntity
  8
0
  6
ByBlock
 62
     0
100
AcDbMText
 10
21.72355178102481
 20
-215.917816901035
 30
0.0
 40
20.0
 41
0.0
 71
     5
 72
     1
  1
\A1;90%%d
 73
     1
 44
1.0
  0
POINT
  5
1466
330
146F
100
AcDbEntity
  8
DEFPOINTS
  6
ByBlock
 62
     0
100
AcDbPoint
 10
-91.00811432774194
 20
-246.1241755676658
 30
0.0
  0
POINT
  5
1467
330
146F
100
AcDbEntity
  8
DEFPOINTS
  6
ByBlock
 62
     0
100
AcDbPoint
 10
-91.00811432774199
 20
-246.1241755676657
 30
0.0
  0
POINT
  5
1468
330
146F
100
AcDbEntity
  8
DEFPOINTS
  6
ByBlock
 62
     0
100
AcDbPoint
 10
8.991885999999994
 20
-72.919095
 30
0.0
  0
POINT
  5
1469
330
146F
100
AcDbEntity
  8
DEFPOINTS
  6
ByBlock
 62
     0
100
AcDbPoint
 10
253.3837382722376
 20
-444.9589052418645
 30
0.0
  0
SOLID
  5
146A
330
146F
100
AcDbEntity
  8
0
  6
ByBlock
 62
     0
100
AcDbTrace
 10
-32.65390981590297
 20
-145.0517289595714
 30
0.0
 11
-32.48307466275939
 21
-145.1158799568389
 31
0.0
 12
-32.51311472420527
 22
-145.1678183309791
 32
0.0
 13
-32.51311472420527
 23
-145.1678183309791
 33
0.0
  0
SOLID
  5
146B
330
146F
100
AcDbEntity
  8
0
  6
ByBlock
 62
     0
100
AcDbTrace
 10
10.06433228035239
 20
-304.4783800795048
 30
0.0
 11
10.12821972143381
 21
-304.3074461891493
 31
0.0
 12
10.18020436473391
 22
-304.3374061100598
 32
0.0
 13
10.18020436473391
 23
-304.3374061100598
 33
0.0
  0
ARC
  5
146C
330
146F
100
AcDbEntity
  8
0
  6
ByBlock
 62
     0
370
    -2
100
AcDbCircle
 10
-91.00811432774201
 20
-246.1241755676658
 30
0.0
 40
116.7084086411756
100
AcDbArc
 50
330.0883674861265
 51
9.925310757756172
  0
ARC
  5
146D
330
146F
100
AcDbEntity
  8
0
  6
ByBlock
 62
     0
370
    -2
100
AcDbCircle
 10
-91.00811432774201
 20
-246.1241755676658
 30
0.0
 40
116.7084086411756
100
AcDbArc
 50
20.19851195706879
 51
59.9116322970411
  0
ENDBLK
  5
5C12
330
146F
100
AcDbEntity
  8
0
100
AcDbBlockEnd
  0
BLOCK
  5
5C13
330
147C
100
AcDbEntity
  8
0
100
AcDbBlockBegin
  2
*D52
 70
     1
 71
     0
 10
0.0
 20
0.0
 30
0.0
  3
*D52
  1

  0
POINT
  5
1472
330
147C
100
AcDbEntity
  8
DEFPOINTS
  6
ByBlock
 62
     0
100
AcDbPoint
 10
108.991886327742
 20
100.2859855676658
 30
0.0
  0
POINT
  5
1473
330
147C
100
AcDbEntity
  8
DEFPOINTS
  6
ByBlock
 62
     0
100
AcDbPoint
 10
3736.332097421283
 20
100.2859855676658
 30
0.0
  0
LINE
  5
1474
330
147C
100
AcDbEntity
  8
0
  6
ByBlock
 62
     0
370
    -2
100
AcDbLine
 10
108.991886327742
 20
100.3484855676658
 30
0.0
 11
108.991886327742
 21
191.2398048820774
 31
0.0
  0
LINE
  5
1475
330
147C
100
AcDbEntity
  8
0
  6
ByBlock
 62
     0
370
    -2
100
AcDbLine
 10
3736.332097421283
 20
100.3484855676658
 30
0.0
 11
3736.332097421283
 21
191.2398048820774
 31
0.0
  0
LINE
  5
1476
330
147C
100
AcDbEntity
  8
0
  6
ByBlock
 62
     0
370
    -2
100
AcDbLine
 10
109.171886327742
 20
191.0598048820774
 30
0.0
 11
1844.271991874512
 21
191.0598048820774
 31
0.0
  0
SOLID
  5
1477
330
147C
100
AcDbEntity
  8
0
  6
ByBlock
 62
     0
100
AcDbTrace
 10
108.991886327742
 20
191.0598048820774
 30
0.0
 11
109.171886327742
 21
191.0298048820774
 31
0.0
 12
109.171886327742
 22
191.0898048820774
 32
0.0
 13
109.171886327742
 23
191.0898048820774
 33
0.0
  0
LINE
  5
1478
330
147C
100
AcDbEntity
  8
0
  6
ByBlock
 62
     0
370
    -2
100
AcDbLine
 10
3736.152097421283
 20
191.0598048820774
 30
0.0
 11
2001.051991874512
 21
191.0598048820774
 31
0.0
  0
SOLID
  5
1479
330
147C
100
AcDbEntity
  8
0
  6
ByBlock
 62
     0
100
AcDbTrace
 10
3736.332097421283
 20
191.0598048820774
 30
0.0
 11
3736.152097421283
 21
191.0298048820774
 31
0.0
 12
3736.152097421283
 22
191.0898048820774
 32
0.0
 13
3736.152097421283
 23
191.0898048820774
 33
0.0
  0
MTEXT
  5
147A
330
147C
100
AcDbEntity
  8
0
  6
ByBlock
 62
     0
100
AcDbMText
 10
1922.661991874512
 20
191.0598048820774
 30
0.0
 40
20.0
 41
0.0
 71
     5
 72
     1
  1
\A1;3627.3402
 73
     1
 44
1.0
  0
ENDBLK
  5
5C14
330
147C
100
AcDbEntity
  8
0
100
AcDbBlockEnd
  0
BLOCK
  5
5C15
330
1489
100
AcDbEntity
  8
0
100
AcDbBlockBegin
  2
*D53
 70
     1
 71
     0
 10
0.0
 20
0.0
 30
0.0
  3
*D53
  1

  0
POINT
  5
147F
330
1489
100
AcDbEntity
  8
DEFPOINTS
  6
ByBlock
 62
     0
100
AcDbPoint
 10
4036.374090179943
 20
-444.9589052418648
 30
0.0
  0
POINT
  5
1480
330
1489
100
AcDbEntity
  8
DEFPOINTS
  6
ByBlock
 62
     0
100
AcDbPoint
 10
-91.00811432774199
 20
-246.1241755676657
 30
0.0
  0
LINE
  5
1481
330
1489
100
AcDbEntity
  8
0
  6
ByBlock
 62
     0
370
    -2
100
AcDbLine
 10
4036.371082759104
 20
-445.0213328432915
 30
0.0
 11
4024.790537318785
 21
-685.4085994298762
 31
0.0
  0
LINE
  5
1482
330
1489
100
AcDbEntity
  8
0
  6
ByBlock
 62
     0
370
    -2
100
AcDbLine
 10
-91.01112174858194
 20
-246.1866031690924
 30
0.0
 11
-102.5916671889004
 21
-486.573869755678
 31
0.0
  0
LINE
  5
1483
330
1489
100
AcDbEntity
  8
0
  6
ByBlock
 62
     0
370
    -2
100
AcDbLine
 10
4024.619407198693
 20
-685.2201465657498
 30
0.0
 11
2170.554839024237
 21
-595.9014431006681
 31
0.0
  0
SOLID
  5
1484
330
1489
100
AcDbEntity
  8
0
  6
ByBlock
 62
     0
100
AcDbTrace
 10
4024.799198690802
 20
-685.2288079377672
 30
0.0
 11
4024.620850760696
 21
-685.1901813170649
 31
0.0
 12
4024.617963636691
 22
-685.2501118144346
 32
0.0
 13
4024.617963636691
 23
-685.2501118144346
 33
0.0
  0
LINE
  5
1485
330
1489
100
AcDbEntity
  8
0
  6
ByBlock
 62
     0
370
    -2
100
AcDbLine
 10
-102.4032143247738
 20
-486.4027396355864
 30
0.0
 11
1751.661353849683
 21
-575.7214431006681
 31
0.0
  0
SOLID
  5
1486
330
1489
100
AcDbEntity
  8
0
  6
ByBlock
 62
     0
100
AcDbTrace
 10
-102.583005816883
 20
-486.394078263569
 30
0.0
 11
-102.4017707627709
 21
-486.3727743869015
 31
0.0
 12
-102.4046578867767
 22
-486.4327048842712
 32
0.0
 13
-102.4046578867767
 23
-486.4327048842712
 33
0.0
  0
MTEXT
  5
1487
330
1489
100
AcDbEntity
  8
0
  6
ByBlock
 62
     0
100
AcDbMText
 10
1961.10809643696
 20
-585.811443100668
 30
0.0
 40
20.0
 41
0.0
 71
     5
 72
     1
  1
\A1;4132.1688
 73
     1
 44
1.0
  0
ENDBLK
  5
5C16
330
1489
100
AcDbEntity
  8
0
100
AcDbBlockEnd
  0
BLOCK
  5
5C17
330
1496
100
AcDbEntity
  8
0
100
AcDbBlockBegin
  2
*D54
 70
     1
 71
     0
 10
0.0
 20
0.0
 30
0.0
  3
*D54
  1

  0
POINT
  5
148C
330
1496
100
AcDbEntity
  8
DEFPOINTS
  6
ByBlock
 62
     0
100
AcDbPoint
 10
3904.108315200391
 20
-67.49023221144277
 30
0.0
  0
POINT
  5
148D
330
1496
100
AcDbEntity
  8
DEFPOINTS
  6
ByBlock
 62
     0
100
AcDbPoint
 10
4036.374090179943
 20
-444.9589052418648
 30
0.0
  0
LINE
  5
148E
330
1496
100
AcDbEntity
  8
0
  6
ByBlock
 62
     0
370
    -2
100
AcDbLine
 10
3904.167298950697
 20
-67.46956418783495
 30
0.0
 11
4035.316998783213
 21
-21.51444810516801
 31
0.0
  0
LINE
  5
148F
330
1496
100
AcDbEntity
  8
0
  6
ByBlock
 62
     0
370
    -2
100
AcDbLine
 10
4036.433073930249
 20
-444.938237218257
 30
0.0
 11
4167.582773762765
 21
-398.9831211355901
 31
0.0
  0
LINE
  5
1490
330
1496
100
AcDbEntity
  8
0
  6
ByBlock
 62
     0
370
    -2
100
AcDbLine
 10
4035.206649490323
 20
-21.74384521403949
 30
0.0
 11
4097.74445697197
 21
-200.2183085283696
 31
0.0
  0
SOLID
  5
1491
330
1496
100
AcDbEntity
  8
0
  6
ByBlock
 62
     0
100
AcDbTrace
 10
4035.147125582332
 20
-21.57397201315855
 30
0.0
 11
4035.178337290176
 21
-21.75376586537124
 31
0.0
 12
4035.234961690469
 22
-21.73392456270773
 32
0.0
 13
4035.234961690469
 23
-21.73392456270773
 33
0.0
  0
LINE
  5
1492
330
1496
100
AcDbEntity
  8
0
  6
ByBlock
 62
     0
370
    -2
100
AcDbLine
 10
4167.353376653893
 20
-398.8727718426997
 30
0.0
 11
4104.815569172246
 21
-220.3983085283696
 31
0.0
  0
SOLID
  5
1493
330
1496
100
AcDbEntity
  8
0
  6
ByBlock
 62
     0
100
AcDbTrace
 10
4167.412900561883
 20
-399.0426450435807
 30
0.0
 11
4167.325064453747
 21
-398.8826924940315
 31
0.0
 12
4167.38168885404
 22
-398.862851191368
 32
0.0
 13
4167.38168885404
 23
-398.862851191368
 33
0.0
  0
MTEXT
  5
1494
330
1496
100
AcDbEntity
  8
0
  6
ByBlock
 62
     0
100
AcDbMText
 10
4101.280013072108
 20
-210.3083085283696
 30
0.0
 40
20.0
 41
0.0
 71
     5
 72
     1
  1
\A1;399.9710
 73
     1
 44
1.0
  0
ENDBLK
  5
5C18
330
1496
100
AcDbEntity
  8
0
100
AcDbBlockEnd
  0
BLOCK
  5
5C19
330
14A3
100
AcDbEntity
  8
0
100
AcDbBlockBegin
  2
*D55
 70
     1
 71
     0
 10
0.0
 20
0.0
 30
0.0
  3
*D55
  1

  0
POINT
  5
1499
330
14A3
100
AcDbEntity
  8
DEFPOINTS
  6
ByBlock
 62
     0
100
AcDbPoint
 10
-91.01112174858194
 20
-246.1866031690924
 30
0.0
  0
POINT
  5
149A
330
14A3
100
AcDbEntity
  8
DEFPOINTS
  6
ByBlock
 62
     0
100
AcDbPoint
 10
108.991886327742
 20
100.3484855676658
 30
0.0
  0
LINE
  5
149B
330
14A3
100
AcDbEntity
  8
0
  6
ByBlock
 62
     0
370
    -2
100
AcDbLine
 10
-91.0652530108791
 20
-246.1553612670678
 30
0.0
 11
-227.3659226206758
 21
-167.48931903697
 31
0.0
  0
LINE
  5
149C
330
14A3
100
AcDbEntity
  8
0
  6
ByBlock
 62
     0
370
    -2
100
AcDbLine
 10
108.9377550654448
 20
100.3797274696904
 30
0.0
 11
-27.36291454435187
 21
179.0457696997882
 31
0.0
  0
LINE
  5
149D
330
14A3
100
AcDbEntity
  8
0
  6
ByBlock
 62
     0
370
    -2
100
AcDbLine
 10
-227.1200479074291
 20
-167.423397679385
 30
0.0
 11
-133.0319722467413
 21
-4.401751346421751
 31
0.0
  0
SOLID
  5
149E
330
14A3
100
AcDbEntity
  8
0
  6
ByBlock
 62
     0
100
AcDbTrace
 10
-227.2100245852599
 20
-167.5792957148009
 30
0.0
 11
-227.0940649015264
 21
-167.4383937923568
 31
0.0
 12
-227.1460309133317
 22
-167.4084015664132
 32
0.0
 13
-227.1460309133317
 23
-167.4084015664132
 33
0.0
  0
LINE
  5
149F
330
14A3
100
AcDbEntity
  8
0
  6
ByBlock
 62
     0
370
    -2
100
AcDbLine
 10
-27.29699318676689
 20
178.7998949865415
 30
0.0
 11
-121.3850688474547
 21
15.77824865357824
 31
0.0
  0
SOLID
  5
14A0
330
14A3
100
AcDbEntity
  8
0
  6
ByBlock
 62
     0
100
AcDbTrace
 10
-27.20701650893603
 20
178.9557930219573
 30
0.0
 11
-27.27101018086425
 21
178.7848988735697
 31
0.0
 12
-27.32297619266954
 22
178.8148910995133
 32
0.0
 13
-27.32297619266954
 23
178.8148910995133
 33
0.0
  0
MTEXT
  5
14A1
330
14A3
100
AcDbEntity
  8
0
  6
ByBlock
 62
     0
100
AcDbMText
 10
-127.208520547098
 20
5.688248653578243
 30
0.0
 40
20.0
 41
0.0
 71
     5
 72
     1
  1
\A1;400.1097
 73
     1
 44
1.0
  0
ENDBLK
  5
5C1A
330
14A3
100
AcDbEntity
  8
0
100
AcDbBlockEnd
  0
BLOCK
  5
5C1B
330
14B0
100
AcDbEntity
  8
0
100
AcDbBlockBegin
  2
*D56
 70
     1
 71
     0
 10
0.0
 20
0.0
 30
0.0
  3
*D56
  1

  0
POINT
  5
14A6
330
14B0
100
AcDbEntity
  8
DEFPOINTS
  6
ByBlock
 62
     0
100
AcDbPoint
 10
-91.01112174858194
 20
-246.1866031690924
 30
0.0
  0
POINT
  5
14A7
330
14B0
100
AcDbEntity
  8
DEFPOINTS
  6
ByBlock
 62
     0
100
AcDbPoint
 10
4036.433073930249
 20
-444.938237218257
 30
0.0
  0
LINE
  5
14A8
330
14B0
100
AcDbEntity
  8
0
  6
ByBlock
 62
     0
370
    -2
100
AcDbLine
 10
-91.01112174858194
 20
-246.2491031690924
 30
0.0
 11
-91.01112174858194
 21
-797.7475917076364
 31
0.0
  0
LINE
  5
14A9
330
14B0
100
AcDbEntity
  8
0
  6
ByBlock
 62
     0
370
    -2
100
AcDbLine
 10
4036.433073930249
 20
-445.000737218257
 30
0.0
 11
4036.433073930249
 21
-797.7475917076364
 31
0.0
  0
LINE
  5
14AA
330
14B0
100
AcDbEntity
  8
0
  6
ByBlock
 62
     0
370
    -2
100
AcDbLine
 10
-90.83112174858194
 20
-797.5675917076364
 30
0.0
 11
1895.920976090833
 21
-797.5675917076364
 31
0.0
  0
SOLID
  5
14AB
330
14B0
100
AcDbEntity
  8
0
  6
ByBlock
 62
     0
100
AcDbTrace
 10
-91.01112174858194
 20
-797.5675917076364
 30
0.0
 11
-90.83112174858194
 21
-797.5975917076364
 31
0.0
 12
-90.83112174858194
 22
-797.5375917076365
 32
0.0
 13
-90.83112174858194
 23
-797.5375917076365
 33
0.0
  0
LINE
  5
14AC
330
14B0
100
AcDbEntity
  8
0
  6
ByBlock
 62
     0
370
    -2
100
AcDbLine
 10
4036.253073930248
 20
-797.5675917076364
 30
0.0
 11
2049.500976090833
 21
-797.5675917076364
 31
0.0
  0
SOLID
  5
14AD
330
14B0
100
AcDbEntity
  8
0
  6
ByBlock
 62
     0
100
AcDbTrace
 10
4036.433073930249
 20
-797.5675917076364
 30
0.0
 11
4036.253073930248
 21
-797.5975917076364
 31
0.0
 12
4036.253073930248
 22
-797.5375917076365
 32
0.0
 13
4036.253073930248
 23
-797.5375917076365
 33
0.0
  0
MTEXT
  5
14AE
330
14B0
100
AcDbEntity
  8
0
  6
ByBlock
 62
     0
100
AcDbMText
 10
1972.710976090833
 20
-797.5675917076364
 30
0.0
 40
20.0
 41
0.0
 71
     5
 72
     1
  1
\A1;4127.4442
 73
     1
 44
1.0
  0
ENDBLK
  5
5C1C
330
14B0
100
AcDbEntity
  8
0
100
AcDbBlockEnd
  0
BLOCK
  5
5C1D
330
14CB
100
AcDbEntity
  8
0
100
AcDbBlockBegin
  2
*D57
 70
     1
 71
     0
 10
0.0
 20
0.0
 30
0.0
  3
*D57
  1

  0
POINT
  5
14C1
330
14CB
100
AcDbEntity
  8
DEFPOINTS
  6
ByBlock
 62
     0
100
AcDbPoint
 10
-91.01112174858194
 20
-246.1866031690924
 30
0.0
  0
POINT
  5
14C2
330
14CB
100
AcDbEntity
  8
DEFPOINTS
  6
ByBlock
 62
     0
100
AcDbPoint
 10
108.991886327742
 20
100.3484855676658
 30
0.0
  0
LINE
  5
14C3
330
14CB
100
AcDbEntity
  8
0
  6
ByBlock
 62
     0
370
    -2
100
AcDbLine
 10
-91.0652530108791
 20
-246.1553612670678
 30
0.0
 11
-227.3659226206758
 21
-167.48931903697
 31
0.0
  0
LINE
  5
14C4
330
14CB
100
AcDbEntity
  8
0
  6
ByBlock
 62
     0
370
    -2
100
AcDbLine
 10
108.9377550654448
 20
100.3797274696904
 30
0.0
 11
-27.36291454435187
 21
179.0457696997882
 31
0.0
  0
LINE
  5
14C5
330
14CB
100
AcDbEntity
  8
0
  6
ByBlock
 62
     0
370
    -2
100
AcDbLine
 10
-227.1200479074291
 20
-167.423397679385
 30
0.0
 11
-133.0319722467413
 21
-4.401751346421751
 31
0.0
  0
SOLID
  5
14C6
330
14CB
100
AcDbEntity
  8
0
  6
ByBlock
 62
     0
100
AcDbTrace
 10
-227.2100245852599
 20
-167.5792957148009
 30
0.0
 11
-227.0940649015264
 21
-167.4383937923568
 31
0.0
 12
-227.1460309133317
 22
-167.4084015664132
 32
0.0
 13
-227.1460309133317
 23
-167.4084015664132
 33
0.0
  0
LINE
  5
14C7
330
14CB
100
AcDbEntity
  8
0
  6
ByBlock
 62
     0
370
    -2
100
AcDbLine
 10
-27.29699318676689
 20
178.7998949865415
 30
0.0
 11
-121.3850688474547
 21
15.77824865357824
 31
0.0
  0
SOLID
  5
14C8
330
14CB
100
AcDbEntity
  8
0
  6
ByBlock
 62
     0
100
AcDbTrace
 10
-27.20701650893603
 20
178.9557930219573
 30
0.0
 11
-27.27101018086425
 21
178.7848988735697
 31
0.0
 12
-27.32297619266954
 22
178.8148910995133
 32
0.0
 13
-27.32297619266954
 23
178.8148910995133
 33
0.0
  0
MTEXT
  5
14C9
330
14CB
100
AcDbEntity
  8
0
  6
ByBlock
 62
     0
100
AcDbMText
 10
-127.208520547098
 20
5.688248653578243
 30
0.0
 40
20.0
 41
0.0
 71
     5
 72
     1
  1
\A1;400
 73
     1
 44
1.0
  0
ENDBLK
  5
5C1E
330
14CB
100
AcDbEntity
  8
0
100
AcDbBlockEnd
  0
BLOCK
  5
5C1F
330
14D7
100
AcDbEntity
  8
0
100
AcDbBlockBegin
  2
*D58
 70
     1
 71
     0
 10
0.0
 20
0.0
 30
0.0
  3
*D58
  1

  0
POINT
  5
14CD
330
14D7
100
AcDbEntity
  8
DEFPOINTS
  6
ByBlock
 62
     0
100
AcDbPoint
 10
-91.01112174858194
 20
-246.1866031690924
 30
0.0
  0
POINT
  5
14CE
330
14D7
100
AcDbEntity
  8
DEFPOINTS
  6
ByBlock
 62
     0
100
AcDbPoint
 10
108.991886327742
 20
100.3484855676658
 30
0.0
  0
LINE
  5
14CF
330
14D7
100
AcDbEntity
  8
0
  6
ByBlock
 62
     0
370
    -2
100
AcDbLine
 10
-91.0652530108791
 20
-246.1553612670678
 30
0.0
 11
-227.3659226206758
 21
-167.48931903697
 31
0.0
  0
LINE
  5
14D0
330
14D7
100
AcDbEntity
  8
0
  6
ByBlock
 62
     0
370
    -2
100
AcDbLine
 10
108.9377550654448
 20
100.3797274696904
 30
0.0
 11
-27.36291454435187
 21
179.0457696997882
 31
0.0
  0
LINE
  5
14D1
330
14D7
100
AcDbEntity
  8
0
  6
ByBlock
 62
     0
370
    -2
100
AcDbLine
 10
-227.1200479074291
 20
-167.423397679385
 30
0.0
 11
-133.0319722467413
 21
-4.401751346421751
 31
0.0
  0
SOLID
  5
14D2
330
14D7
100
AcDbEntity
  8
0
  6
ByBlock
 62
     0
100
AcDbTrace
 10
-227.2100245852599
 20
-167.5792957148009
 30
0.0
 11
-227.0940649015264
 21
-167.4383937923568
 31
0.0
 12
-227.1460309133317
 22
-167.4084015664132
 32
0.0
 13
-227.1460309133317
 23
-167.4084015664132
 33
0.0
  0
LINE
  5
14D3
330
14D7
100
AcDbEntity
  8
0
  6
ByBlock
 62
     0
370
    -2
100
AcDbLine
 10
-27.29699318676689
 20
178.7998949865415
 30
0.0
 11
-121.3850688474547
 21
15.77824865357824
 31
0.0
  0
SOLID
  5
14D4
330
14D7
100
AcDbEntity
  8
0
  6
ByBlock
 62
     0
100
AcDbTrace
 10
-27.20701650893603
 20
178.9557930219573
 30
0.0
 11
-27.27101018086425
 21
178.7848988735697
 31
0.0
 12
-27.32297619266954
 22
178.8148910995133
 32
0.0
 13
-27.32297619266954
 23
178.8148910995133
 33
0.0
  0
MTEXT
  5
14D5
330
14D7
100
AcDbEntity
  8
0
  6
ByBlock
 62
     0
100
AcDbMText
 10
-127.208520547098
 20
5.688248653578243
 30
0.0
 40
20.0
 41
0.0
 71
     5
 72
     1
  1
\A1;400
 73
     1
 44
1.0
  0
ENDBLK
  5
5C20
330
14D7
100
AcDbEntity
  8
0
100
AcDbBlockEnd
  0
BLOCK
  5
5C21
330
14E3
100
AcDbEntity
  8
0
100
AcDbBlockBegin
  2
*D59
 70
     1
 71
     0
 10
0.0
 20
0.0
 30
0.0
  3
*D59
  1

  0
POINT
  5
14D9
330
14E3
100
AcDbEntity
  8
DEFPOINTS
  6
ByBlock
 62
     0
100
AcDbPoint
 10
3904.108315200391
 20
-67.49023221144277
 30
0.0
  0
POINT
  5
14DA
330
14E3
100
AcDbEntity
  8
DEFPOINTS
  6
ByBlock
 62
     0
100
AcDbPoint
 10
4036.374090179943
 20
-444.9589052418648
 30
0.0
  0
LINE
  5
14DB
330
14E3
100
AcDbEntity
  8
0
  6
ByBlock
 62
     0
370
    -2
100
AcDbLine
 10
3904.167298950697
 20
-67.46956418783495
 30
0.0
 11
4035.316998783213
 21
-21.51444810516812
 31
0.0
  0
LINE
  5
14DC
330
14E3
100
AcDbEntity
  8
0
  6
ByBlock
 62
     0
370
    -2
100
AcDbLine
 10
4036.433073930249
 20
-444.938237218257
 30
0.0
 11
4167.582773762764
 21
-398.9831211355902
 31
0.0
  0
LINE
  5
14DD
330
14E3
100
AcDbEntity
  8
0
  6
ByBlock
 62
     0
370
    -2
100
AcDbLine
 10
4035.206649490322
 20
-21.7438452140396
 30
0.0
 11
4097.74445697197
 21
-200.2183085283697
 31
0.0
  0
SOLID
  5
14DE
330
14E3
100
AcDbEntity
  8
0
  6
ByBlock
 62
     0
100
AcDbTrace
 10
4035.147125582332
 20
-21.57397201315866
 30
0.0
 11
4035.178337290176
 21
-21.75376586537135
 31
0.0
 12
4035.234961690469
 22
-21.73392456270784
 32
0.0
 13
4035.234961690469
 23
-21.73392456270784
 33
0.0
  0
LINE
  5
14DF
330
14E3
100
AcDbEntity
  8
0
  6
ByBlock
 62
     0
370
    -2
100
AcDbLine
 10
4167.353376653893
 20
-398.8727718426998
 30
0.0
 11
4104.815569172246
 21
-220.3983085283697
 31
0.0
  0
SOLID
  5
14E0
330
14E3
100
AcDbEntity
  8
0
  6
ByBlock
 62
     0
100
AcDbTrace
 10
4167.412900561883
 20
-399.0426450435808
 30
0.0
 11
4167.325064453746
 21
-398.8826924940316
 31
0.0
 12
4167.38168885404
 22
-398.8628511913681
 32
0.0
 13
4167.38168885404
 23
-398.8628511913681
 33
0.0
  0
MTEXT
  5
14E1
330
14E3
100
AcDbEntity
  8
0
  6
ByBlock
 62
     0
100
AcDbMText
 10
4101.280013072108
 20
-210.3083085283697
 30
0.0
 40
20.0
 41
0.0
 71
     5
 72
     1
  1
\A1;400
 73
     1
 44
1.0
  0
ENDBLK
  5
5C22
330
14E3
100
AcDbEntity
  8
0
100
AcDbBlockEnd
  0
BLOCK
  5
5C23
330
14EF
100
AcDbEntity
  8
0
100
AcDbBlockBegin
  2
*D60
 70
     1
 71
     0
 10
0.0
 20
0.0
 30
0.0
  3
*D60
  1

  0
POINT
  5
14E5
330
14EF
100
AcDbEntity
  8
DEFPOINTS
  6
ByBlock
 62
     0
100
AcDbPoint
 10
3904.108315200391
 20
-67.49023221144277
 30
0.0
  0
POINT
  5
14E6
330
14EF
100
AcDbEntity
  8
DEFPOINTS
  6
ByBlock
 62
     0
100
AcDbPoint
 10
4036.374090179943
 20
-444.9589052418648
 30
0.0
  0
LINE
  5
14E7
330
14EF
100
AcDbEntity
  8
0
  6
ByBlock
 62
     0
370
    -2
100
AcDbLine
 10
3904.167298950697
 20
-67.46956418783495
 30
0.0
 11
4035.316998783213
 21
-21.51444810516812
 31
0.0
  0
LINE
  5
14E8
330
14EF
100
AcDbEntity
  8
0
  6
ByBlock
 62
     0
370
    -2
100
AcDbLine
 10
4036.433073930249
 20
-444.938237218257
 30
0.0
 11
4167.582773762764
 21
-398.9831211355902
 31
0.0
  0
LINE
  5
14E9
330
14EF
100
AcDbEntity
  8
0
  6
ByBlock
 62
     0
370
    -2
100
AcDbLine
 10
4035.206649490322
 20
-21.7438452140396
 30
0.0
 11
4097.74445697197
 21
-200.2183085283697
 31
0.0
  0
SOLID
  5
14EA
330
14EF
100
AcDbEntity
  8
0
  6
ByBlock
 62
     0
100
AcDbTrace
 10
4035.147125582332
 20
-21.57397201315866
 30
0.0
 11
4035.178337290176
 21
-21.75376586537135
 31
0.0
 12
4035.234961690469
 22
-21.73392456270784
 32
0.0
 13
4035.234961690469
 23
-21.73392456270784
 33
0.0
  0
LINE
  5
14EB
330
14EF
100
AcDbEntity
  8
0
  6
ByBlock
 62
     0
370
    -2
100
AcDbLine
 10
4167.353376653893
 20
-398.8727718426998
 30
0.0
 11
4104.815569172246
 21
-220.3983085283697
 31
0.0
  0
SOLID
  5
14EC
330
14EF
100
AcDbEntity
  8
0
  6
ByBlock
 62
     0
100
AcDbTrace
 10
4167.412900561883
 20
-399.0426450435808
 30
0.0
 11
4167.325064453746
 21
-398.8826924940316
 31
0.0
 12
4167.38168885404
 22
-398.8628511913681
 32
0.0
 13
4167.38168885404
 23
-398.8628511913681
 33
0.0
  0
MTEXT
  5
14ED
330
14EF
100
AcDbEntity
  8
0
  6
ByBlock
 62
     0
100
AcDbMText
 10
4101.280013072108
 20
-210.3083085283697
 30
0.0
 40
20.0
 41
0.0
 71
     5
 72
     1
  1
\A1;400
 73
     1
 44
1.0
  0
ENDBLK
  5
5C24
330
14EF
100
AcDbEntity
  8
0
100
AcDbBlockEnd
  0
BLOCK
  5
5C25
330
14FB
100
AcDbEntity
  8
0
100
AcDbBlockBegin
  2
*D61
 70
     1
 71
     0
 10
0.0
 20
0.0
 30
0.0
  3
*D61
  1

  0
POINT
  5
14F1
330
14FB
100
AcDbEntity
  8
DEFPOINTS
  6
ByBlock
 62
     0
100
AcDbPoint
 10
108.991886327742
 20
100.2859855676658
 30
0.0
  0
POINT
  5
14F2
330
14FB
100
AcDbEntity
  8
DEFPOINTS
  6
ByBlock
 62
     0
100
AcDbPoint
 10
3736.332097421283
 20
100.2859855676658
 30
0.0
  0
LINE
  5
14F3
330
14FB
100
AcDbEntity
  8
0
  6
ByBlock
 62
     0
370
    -2
100
AcDbLine
 10
108.991886327742
 20
100.3484855676658
 30
0.0
 11
108.991886327742
 21
191.2398048820774
 31
0.0
  0
LINE
  5
14F4
330
14FB
100
AcDbEntity
  8
0
  6
ByBlock
 62
     0
370
    -2
100
AcDbLine
 10
3736.332097421283
 20
100.3484855676658
 30
0.0
 11
3736.332097421283
 21
191.2398048820774
 31
0.0
  0
LINE
  5
14F5
330
14FB
100
AcDbEntity
  8
0
  6
ByBlock
 62
     0
370
    -2
100
AcDbLine
 10
109.171886327742
 20
191.0598048820774
 30
0.0
 11
1885.871991874512
 21
191.0598048820774
 31
0.0
  0
SOLID
  5
14F6
330
14FB
100
AcDbEntity
  8
0
  6
ByBlock
 62
     0
100
AcDbTrace
 10
108.991886327742
 20
191.0598048820774
 30
0.0
 11
109.171886327742
 21
191.0298048820774
 31
0.0
 12
109.171886327742
 22
191.0898048820774
 32
0.0
 13
109.171886327742
 23
191.0898048820774
 33
0.0
  0
LINE
  5
14F7
330
14FB
100
AcDbEntity
  8
0
  6
ByBlock
 62
     0
370
    -2
100
AcDbLine
 10
3736.152097421283
 20
191.0598048820774
 30
0.0
 11
1959.451991874512
 21
191.0598048820774
 31
0.0
  0
SOLID
  5
14F8
330
14FB
100
AcDbEntity
  8
0
  6
ByBlock
 62
     0
100
AcDbTrace
 10
3736.332097421283
 20
191.0598048820774
 30
0.0
 11
3736.152097421283
 21
191.0298048820774
 31
0.0
 12
3736.152097421283
 22
191.0898048820774
 32
0.0
 13
3736.152097421283
 23
191.0898048820774
 33
0.0
  0
MTEXT
  5
14F9
330
14FB
100
AcDbEntity
  8
0
  6
ByBlock
 62
     0
100
AcDbMText
 10
1922.661991874512
 20
191.0598048820774
 30
0.0
 40
20.0
 41
0.0
 71
     5
 72
     1
  1
\A1;3627
 73
     1
 44
1.0
  0
ENDBLK
  5
5C26
330
14FB
100
AcDbEntity
  8
0
100
AcDbBlockEnd
  0
BLOCK
  5
5C27
330
1507
100
AcDbEntity
  8
0
100
AcDbBlockBegin
  2
*D62
 70
     1
 71
     0
 10
0.0
 20
0.0
 30
0.0
  3
*D62
  1

  0
POINT
  5
14FD
330
1507
100
AcDbEntity
  8
DEFPOINTS
  6
ByBlock
 62
     0
100
AcDbPoint
 10
108.991886327742
 20
100.2859855676658
 30
0.0
  0
POINT
  5
14FE
330
1507
100
AcDbEntity
  8
DEFPOINTS
  6
ByBlock
 62
     0
100
AcDbPoint
 10
3736.332097421283
 20
100.2859855676658
 30
0.0
  0
LINE
  5
14FF
330
1507
100
AcDbEntity
  8
0
  6
ByBlock
 62
     0
370
    -2
100
AcDbLine
 10
108.991886327742
 20
100.3484855676658
 30
0.0
 11
108.991886327742
 21
191.2398048820774
 31
0.0
  0
LINE
  5
1500
330
1507
100
AcDbEntity
  8
0
  6
ByBlock
 62
     0
370
    -2
100
AcDbLine
 10
3736.332097421283
 20
100.3484855676658
 30
0.0
 11
3736.332097421283
 21
191.2398048820774
 31
0.0
  0
LINE
  5
1501
330
1507
100
AcDbEntity
  8
0
  6
ByBlock
 62
     0
370
    -2
100
AcDbLine
 10
109.171886327742
 20
191.0598048820774
 30
0.0
 11
1885.871991874512
 21
191.0598048820774
 31
0.0
  0
SOLID
  5
1502
330
1507
100
AcDbEntity
  8
0
  6
ByBlock
 62
     0
100
AcDbTrace
 10
108.991886327742
 20
191.0598048820774
 30
0.0
 11
109.171886327742
 21
191.0298048820774
 31
0.0
 12
109.171886327742
 22
191.0898048820774
 32
0.0
 13
109.171886327742
 23
191.0898048820774
 33
0.0
  0
LINE
  5
1503
330
1507
100
AcDbEntity
  8
0
  6
ByBlock
 62
     0
370
    -2
100
AcDbLine
 10
3736.152097421283
 20
191.0598048820774
 30
0.0
 11
1959.451991874512
 21
191.0598048820774
 31
0.0
  0
SOLID
  5
1504
330
1507
100
AcDbEntity
  8
0
  6
ByBlock
 62
     0
100
AcDbTrace
 10
3736.332097421283
 20
191.0598048820774
 30
0.0
 11
3736.152097421283
 21
191.0298048820774
 31
0.0
 12
3736.152097421283
 22
191.0898048820774
 32
0.0
 13
3736.152097421283
 23
191.0898048820774
 33
0.0
  0
MTEXT
  5
1505
330
1507
100
AcDbEntity
  8
0
  6
ByBlock
 62
     0
100
AcDbMText
 10
1922.661991874512
 20
191.0598048820774
 30
0.0
 40
20.0
 41
0.0
 71
     5
 72
     1
  1
\A1;3627
 73
     1
 44
1.0
  0
ENDBLK
  5
5C28
330
1507
100
AcDbEntity
  8
0
100
AcDbBlockEnd
  0
BLOCK
  5
5C29
330
1520
100
AcDbEntity
  8
0
100
AcDbBlockBegin
  2
*D63
 70
     1
 71
     0
 10
0.0
 20
0.0
 30
0.0
  3
*D63
  1

  0
POINT
  5
1516
330
1520
100
AcDbEntity
  8
DEFPOINTS
  6
ByBlock
 62
     0
100
AcDbPoint
 10
3904.167298950697
 20
-67.46956418783495
 30
0.0
  0
POINT
  5
1517
330
1520
100
AcDbEntity
  8
DEFPOINTS
  6
ByBlock
 62
     0
100
AcDbPoint
 10
108.9377550654448
 20
100.3797274696904
 30
0.0
  0
LINE
  5
1518
330
1520
100
AcDbEntity
  8
0
  6
ByBlock
 62
     0
370
    -2
100
AcDbLine
 10
3904.167298950697
 20
-67.40706418783495
 30
0.0
 11
3904.167298950697
 21
191.2398048820774
 31
0.0
  0
LINE
  5
1519
330
1520
100
AcDbEntity
  8
0
  6
ByBlock
 62
     0
370
    -2
100
AcDbLine
 10
108.9377550654449
 20
100.4422274696904
 30
0.0
 11
108.9377550654449
 21
191.2398048820774
 31
0.0
  0
LINE
  5
151A
330
1520
100
AcDbEntity
  8
0
  6
ByBlock
 62
     0
370
    -2
100
AcDbLine
 10
3903.987298950697
 20
191.0598048820774
 30
0.0
 11
2086.642527008071
 21
191.0598048820774
 31
0.0
  0
SOLID
  5
151B
330
1520
100
AcDbEntity
  8
0
  6
ByBlock
 62
     0
100
AcDbTrace
 10
3904.167298950697
 20
191.0598048820774
 30
0.0
 11
3903.987298950697
 21
191.0898048820775
 31
0.0
 12
3903.987298950697
 22
191.0298048820774
 32
0.0
 13
3903.987298950697
 23
191.0298048820774
 33
0.0
  0
LINE
  5
151C
330
1520
100
AcDbEntity
  8
0
  6
ByBlock
 62
     0
370
    -2
100
AcDbLine
 10
109.1177550654447
 20
191.0598048820774
 30
0.0
 11
1926.462527008071
 21
191.0598048820774
 31
0.0
  0
SOLID
  5
151D
330
1520
100
AcDbEntity
  8
0
  6
ByBlock
 62
     0
100
AcDbTrace
 10
108.9377550654449
 20
191.0598048820774
 30
0.0
 11
109.1177550654447
 21
191.0898048820775
 31
0.0
 12
109.1177550654447
 22
191.0298048820774
 32
0.0
 13
109.1177550654447
 23
191.0298048820774
 33
0.0
  0
MTEXT
  5
151E
330
1520
100
AcDbEntity
  8
0
  6
ByBlock
 62
     0
100
AcDbMText
 10
2006.552527008071
 20
191.0598048820774
 30
0.0
 40
20.0
 41
0.0
 71
     5
 72
     1
  1
\A1;3795.2295
 73
     1
 44
1.0
  0
ENDBLK
  5
5C2A
330
1520
100
AcDbEntity
  8
0
100
AcDbBlockEnd
  0
BLOCK
  5
5C2B
330
152C
100
AcDbEntity
  8
0
100
AcDbBlockBegin
  2
*D64
 70
     1
 71
     0
 10
0.0
 20
0.0
 30
0.0
  3
*D64
  1

  0
POINT
  5
1522
330
152C
100
AcDbEntity
  8
DEFPOINTS
  6
ByBlock
 62
     0
100
AcDbPoint
 10
3904.167298950697
 20
-67.46956418783495
 30
0.0
  0
POINT
  5
1523
330
152C
100
AcDbEntity
  8
DEFPOINTS
  6
ByBlock
 62
     0
100
AcDbPoint
 10
108.9377550654448
 20
100.3797274696904
 30
0.0
  0
LINE
  5
1524
330
152C
100
AcDbEntity
  8
0
  6
ByBlock
 62
     0
370
    -2
100
AcDbLine
 10
3904.167298950697
 20
-67.40706418783495
 30
0.0
 11
3904.167298950697
 21
191.2398048820774
 31
0.0
  0
LINE
  5
1525
330
152C
100
AcDbEntity
  8
0
  6
ByBlock
 62
     0
370
    -2
100
AcDbLine
 10
108.9377550654449
 20
100.4422274696904
 30
0.0
 11
108.9377550654449
 21
191.2398048820774
 31
0.0
  0
LINE
  5
1526
330
152C
100
AcDbEntity
  8
0
  6
ByBlock
 62
     0
370
    -2
100
AcDbLine
 10
3903.987298950697
 20
191.0598048820774
 30
0.0
 11
2043.342527008071
 21
191.0598048820774
 31
0.0
  0
SOLID
  5
1527
330
152C
100
AcDbEntity
  8
0
  6
ByBlock
 62
     0
100
AcDbTrace
 10
3904.167298950697
 20
191.0598048820774
 30
0.0
 11
3903.987298950697
 21
191.0898048820775
 31
0.0
 12
3903.987298950697
 22
191.0298048820774
 32
0.0
 13
3903.987298950697
 23
191.0298048820774
 33
0.0
  0
LINE
  5
1528
330
152C
100
AcDbEntity
  8
0
  6
ByBlock
 62
     0
370
    -2
100
AcDbLine
 10
109.1177550654447
 20
191.0598048820774
 30
0.0
 11
1969.762527008071
 21
191.0598048820774
 31
0.0
  0
SOLID
  5
1529
330
152C
100
AcDbEntity
  8
0
  6
ByBlock
 62
     0
100
AcDbTrace
 10
108.9377550654449
 20
191.0598048820774
 30
0.0
 11
109.1177550654447
 21
191.0898048820775
 31
0.0
 12
109.1177550654447
 22
191.0298048820774
 32
0.0
 13
109.1177550654447
 23
191.0298048820774
 33
0.0
  0
MTEXT
  5
152A
330
152C
100
AcDbEntity
  8
0
  6
ByBlock
 62
     0
100
AcDbMText
 10
2006.552527008071
 20
191.0598048820774
 30
0.0
 40
20.0
 41
0.0
 71
     5
 72
     1
  1
\A1;3795
 73
     1
 44
1.0
  0
ENDBLK
  5
5C2C
330
152C
100
AcDbEntity
  8
0
100
AcDbBlockEnd
  0
BLOCK
  5
5C2D
330
1538
100
AcDbEntity
  8
0
100
AcDbBlockBegin
  2
*D65
 70
     1
 71
     0
 10
0.0
 20
0.0
 30
0.0
  3
*D65
  1

  0
POINT
  5
152E
330
1538
100
AcDbEntity
  8
DEFPOINTS
  6
ByBlock
 62
     0
100
AcDbPoint
 10
3904.167298950697
 20
-67.46956418783495
 30
0.0
  0
POINT
  5
152F
330
1538
100
AcDbEntity
  8
DEFPOINTS
  6
ByBlock
 62
     0
100
AcDbPoint
 10
108.9377550654448
 20
100.3797274696904
 30
0.0
  0
LINE
  5
1530
330
1538
100
AcDbEntity
  8
0
  6
ByBlock
 62
     0
370
    -2
100
AcDbLine
 10
3904.167298950697
 20
-67.40706418783495
 30
0.0
 11
3904.167298950697
 21
191.2398048820774
 31
0.0
  0
LINE
  5
1531
330
1538
100
AcDbEntity
  8
0
  6
ByBlock
 62
     0
370
    -2
100
AcDbLine
 10
108.9377550654449
 20
100.4422274696904
 30
0.0
 11
108.9377550654449
 21
191.2398048820774
 31
0.0
  0
LINE
  5
1532
330
1538
100
AcDbEntity
  8
0
  6
ByBlock
 62
     0
370
    -2
100
AcDbLine
 10
3903.987298950697
 20
191.0598048820774
 30
0.0
 11
2043.342527008071
 21
191.0598048820774
 31
0.0
  0
SOLID
  5
1533
330
1538
100
AcDbEntity
  8
0
  6
ByBlock
 62
     0
100
AcDbTrace
 10
3904.167298950697
 20
191.0598048820774
 30
0.0
 11
3903.987298950697
 21
191.0898048820775
 31
0.0
 12
3903.987298950697
 22
191.0298048820774
 32
0.0
 13
3903.987298950697
 23
191.0298048820774
 33
0.0
  0
LINE
  5
1534
330
1538
100
AcDbEntity
  8
0
  6
ByBlock
 62
     0
370
    -2
100
AcDbLine
 10
109.1177550654447
 20
191.0598048820774
 30
0.0
 11
1969.762527008071
 21
191.0598048820774
 31
0.0
  0
SOLID
  5
1535
330
1538
100
AcDbEntity
  8
0
  6
ByBlock
 62
     0
100
AcDbTrace
 10
108.9377550654449
 20
191.0598048820774
 30
0.0
 11
109.1177550654447
 21
191.0898048820775
 31
0.0
 12
109.1177550654447
 22
191.0298048820774
 32
0.0
 13
109.1177550654447
 23
191.0298048820774
 33
0.0
  0
MTEXT
  5
1536
330
1538
100
AcDbEntity
  8
0
  6
ByBlock
 62
     0
100
AcDbMText
 10
2006.552527008071
 20
191.0598048820774
 30
0.0
 40
20.0
 41
0.0
 71
     5
 72
     1
  1
\A1;3795
 73
     1
 44
1.0
  0
ENDBLK
  5
5C2E
330
1538
100
AcDbEntity
  8
0
100
AcDbBlockEnd
  0
BLOCK
  5
5C2F
330
1546
100
AcDbEntity
  8
0
100
AcDbBlockBegin
  2
*D66
 70
     1
 71
     0
 10
0.0
 20
0.0
 30
0.0
  3
*D66
  1

  0
POINT
  5
153C
330
1546
100
AcDbEntity
  8
DEFPOINTS
  6
ByBlock
 62
     0
100
AcDbPoint
 10
3904.108315200391
 20
-67.49023221144277
 30
0.0
  0
POINT
  5
153D
330
1546
100
AcDbEntity
  8
DEFPOINTS
  6
ByBlock
 62
     0
100
AcDbPoint
 10
108.991886327742
 20
100.2859855676658
 30
0.0
  0
LINE
  5
153E
330
1546
100
AcDbEntity
  8
0
  6
ByBlock
 62
     0
370
    -2
100
AcDbLine
 10
3904.108315200391
 20
-67.42773221144277
 30
0.0
 11
3904.108315200391
 21
270.3299966092545
 31
0.0
  0
LINE
  5
153F
330
1546
100
AcDbEntity
  8
0
  6
ByBlock
 62
     0
370
    -2
100
AcDbLine
 10
108.9918863277421
 20
100.3484855676658
 30
0.0
 11
108.9918863277421
 21
270.3299966092545
 31
0.0
  0
LINE
  5
1540
330
1546
100
AcDbEntity
  8
0
  6
ByBlock
 62
     0
370
    -2
100
AcDbLine
 10
3903.928315200391
 20
270.1499966092545
 30
0.0
 11
2080.040100764067
 21
270.1499966092545
 31
0.0
  0
SOLID
  5
1541
330
1546
100
AcDbEntity
  8
0
  6
ByBlock
 62
     0
100
AcDbTrace
 10
3904.108315200391
 20
270.1499966092545
 30
0.0
 11
3903.928315200391
 21
270.1799966092545
 31
0.0
 12
3903.928315200391
 22
270.1199966092545
 32
0.0
 13
3903.928315200391
 23
270.1199966092545
 33
0.0
  0
LINE
  5
1542
330
1546
100
AcDbEntity
  8
0
  6
ByBlock
 62
     0
370
    -2
100
AcDbLine
 10
109.171886327742
 20
270.1499966092545
 30
0.0
 11
1933.060100764067
 21
270.1499966092545
 31
0.0
  0
SOLID
  5
1543
330
1546
100
AcDbEntity
  8
0
  6
ByBlock
 62
     0
100
AcDbTrace
 10
108.9918863277421
 20
270.1499966092545
 30
0.0
 11
109.171886327742
 21
270.1799966092545
 31
0.0
 12
109.171886327742
 22
270.1199966092545
 32
0.0
 13
109.171886327742
 23
270.1199966092545
 33
0.0
  0
MTEXT
  5
1544
330
1546
100
AcDbEntity
  8
0
  6
ByBlock
 62
     0
100
AcDbMText
 10
2006.550100764067
 20
270.1499966092545
 30
0.0
 40
20.0
 41
0.0
 71
     5
 72
     1
  1
\A1;3795.1164
 73
     1
 44
1.0
  0
ENDBLK
  5
5C30
330
1546
100
AcDbEntity
  8
Masse
100
AcDbBlockEnd
  0
BLOCK
  5
5C31
330
1552
100
AcDbEntity
  8
0
100
AcDbBlockBegin
  2
*D67
 70
     1
 71
     0
 10
0.0
 20
0.0
 30
0.0
  3
*D67
  1

  0
POINT
  5
1548
330
1552
100
AcDbEntity
  8
DEFPOINTS
  6
ByBlock
 62
     0
100
AcDbPoint
 10
3904.108315200391
 20
-67.49023221144277
 30
0.0
  0
POINT
  5
1549
330
1552
100
AcDbEntity
  8
DEFPOINTS
  6
ByBlock
 62
     0
100
AcDbPoint
 10
108.991886327742
 20
100.2859855676658
 30
0.0
  0
LINE
  5
154A
330
1552
100
AcDbEntity
  8
0
  6
ByBlock
 62
     0
370
    -2
100
AcDbLine
 10
3904.108315200391
 20
-67.42773221144277
 30
0.0
 11
3904.108315200391
 21
270.3299966092545
 31
0.0
  0
LINE
  5
154B
330
1552
100
AcDbEntity
  8
0
  6
ByBlock
 62
     0
370
    -2
100
AcDbLine
 10
108.9918863277421
 20
100.3484855676658
 30
0.0
 11
108.9918863277421
 21
270.3299966092545
 31
0.0
  0
LINE
  5
154C
330
1552
100
AcDbEntity
  8
0
  6
ByBlock
 62
     0
370
    -2
100
AcDbLine
 10
3903.928315200391
 20
270.1499966092545
 30
0.0
 11
2080.040100764067
 21
270.1499966092545
 31
0.0
  0
SOLID
  5
154D
330
1552
100
AcDbEntity
  8
0
  6
ByBlock
 62
     0
100
AcDbTrace
 10
3904.108315200391
 20
270.1499966092545
 30
0.0
 11
3903.928315200391
 21
270.1799966092545
 31
0.0
 12
3903.928315200391
 22
270.1199966092545
 32
0.0
 13
3903.928315200391
 23
270.1199966092545
 33
0.0
  0
LINE
  5
154E
330
1552
100
AcDbEntity
  8
0
  6
ByBlock
 62
     0
370
    -2
100
AcDbLine
 10
109.171886327742
 20
270.1499966092545
 30
0.0
 11
1933.060100764067
 21
270.1499966092545
 31
0.0
  0
SOLID
  5
154F
330
1552
100
AcDbEntity
  8
0
  6
ByBlock
 62
     0
100
AcDbTrace
 10
108.9918863277421
 20
270.1499966092545
 30
0.0
 11
109.171886327742
 21
270.1799966092545
 31
0.0
 12
109.171886327742
 22
270.1199966092545
 32
0.0
 13
109.171886327742
 23
270.1199966092545
 33
0.0
  0
MTEXT
  5
1550
330
1552
100
AcDbEntity
  8
0
  6
ByBlock
 62
     0
100
AcDbMText
 10
2006.550100764067
 20
270.1499966092545
 30
0.0
 40
20.0
 41
0.0
 71
     5
 72
     1
  1
\A1;3795.1164
 73
     1
 44
1.0
  0
ENDBLK
  5
5C32
330
1552
100
AcDbEntity
  8
Masse
100
AcDbBlockEnd
  0
BLOCK
  5
5C33
330
155E
100
AcDbEntity
  8
0
100
AcDbBlockBegin
  2
*D68
 70
     1
 71
     0
 10
0.0
 20
0.0
 30
0.0
  3
*D68
  1

  0
POINT
  5
1554
330
155E
100
AcDbEntity
  8
DEFPOINTS
  6
ByBlock
 62
     0
100
AcDbPoint
 10
3904.108315200391
 20
-67.49023221144277
 30
0.0
  0
POINT
  5
1555
330
155E
100
AcDbEntity
  8
DEFPOINTS
  6
ByBlock
 62
     0
100
AcDbPoint
 10
108.991886327742
 20
100.2859855676658
 30
0.0
  0
LINE
  5
1556
330
155E
100
AcDbEntity
  8
0
  6
ByBlock
 62
     0
370
    -2
100
AcDbLine
 10
3904.108315200391
 20
-67.42773221144277
 30
0.0
 11
3904.108315200391
 21
270.3299966092545
 31
0.0
  0
LINE
  5
1557
330
155E
100
AcDbEntity
  8
0
  6
ByBlock
 62
     0
370
    -2
100
AcDbLine
 10
108.9918863277421
 20
100.3484855676658
 30
0.0
 11
108.9918863277421
 21
270.3299966092545
 31
0.0
  0
LINE
  5
1558
330
155E
100
AcDbEntity
  8
0
  6
ByBlock
 62
     0
370
    -2
100
AcDbLine
 10
3903.928315200391
 20
270.1499966092545
 30
0.0
 11
2153.530100764066
 21
270.1499966092545
 31
0.0
  0
SOLID
  5
1559
330
155E
100
AcDbEntity
  8
0
  6
ByBlock
 62
     0
100
AcDbTrace
 10
3904.108315200391
 20
270.1499966092545
 30
0.0
 11
3903.928315200391
 21
270.1799966092545
 31
0.0
 12
3903.928315200391
 22
270.1199966092545
 32
0.0
 13
3903.928315200391
 23
270.1199966092545
 33
0.0
  0
LINE
  5
155A
330
155E
100
AcDbEntity
  8
0
  6
ByBlock
 62
     0
370
    -2
100
AcDbLine
 10
109.171886327742
 20
270.1499966092545
 30
0.0
 11
2006.550100764067
 21
270.1499966092545
 31
0.0
  0
SOLID
  5
155B
330
155E
100
AcDbEntity
  8
0
  6
ByBlock
 62
     0
100
AcDbTrace
 10
108.9918863277421
 20
270.1499966092545
 30
0.0
 11
109.171886327742
 21
270.1799966092545
 31
0.0
 12
109.171886327742
 22
270.1199966092545
 32
0.0
 13
109.171886327742
 23
270.1199966092545
 33
0.0
  0
MTEXT
  5
155C
330
155E
100
AcDbEntity
  8
0
  6
ByBlock
 62
     0
100
AcDbMText
 10
2080.040100764067
 20
270.1499966092545
 30
0.0
 40
20.0
 41
0.0
 71
     5
 72
     1
  1
\A1;3795.1164
 73
     1
 44
1.0
  0
ENDBLK
  5
5C34
330
155E
100
AcDbEntity
  8
Masse
100
AcDbBlockEnd
  0
BLOCK
  5
5C35
330
156A
100
AcDbEntity
  8
0
100
AcDbBlockBegin
  2
*D69
 70
     1
 71
     0
 10
0.0
 20
0.0
 30
0.0
  3
*D69
  1

  0
POINT
  5
1560
330
156A
100
AcDbEntity
  8
DEFPOINTS
  6
ByBlock
 62
     0
100
AcDbPoint
 10
3904.108315200391
 20
-67.49023221144277
 30
0.0
  0
POINT
  5
1561
330
156A
100
AcDbEntity
  8
DEFPOINTS
  6
ByBlock
 62
     0
100
AcDbPoint
 10
108.991886327742
 20
100.2859855676658
 30
0.0
  0
LINE
  5
1562
330
156A
100
AcDbEntity
  8
0
  6
ByBlock
 62
     0
370
    -2
100
AcDbLine
 10
3904.108315200391
 20
-67.42773221144277
 30
0.0
 11
3904.108315200391
 21
270.3299966092545
 31
0.0
  0
LINE
  5
1563
330
156A
100
AcDbEntity
  8
0
  6
ByBlock
 62
     0
370
    -2
100
AcDbLine
 10
108.9918863277421
 20
100.3484855676658
 30
0.0
 11
108.9918863277421
 21
270.3299966092545
 31
0.0
  0
LINE
  5
1564
330
156A
100
AcDbEntity
  8
0
  6
ByBlock
 62
     0
370
    -2
100
AcDbLine
 10
3903.928315200391
 20
270.1499966092545
 30
0.0
 11
2116.830100764067
 21
270.1499966092545
 31
0.0
  0
SOLID
  5
1565
330
156A
100
AcDbEntity
  8
0
  6
ByBlock
 62
     0
100
AcDbTrace
 10
3904.108315200391
 20
270.1499966092545
 30
0.0
 11
3903.928315200391
 21
270.1799966092545
 31
0.0
 12
3903.928315200391
 22
270.1199966092545
 32
0.0
 13
3903.928315200391
 23
270.1199966092545
 33
0.0
  0
LINE
  5
1566
330
156A
100
AcDbEntity
  8
0
  6
ByBlock
 62
     0
370
    -2
100
AcDbLine
 10
109.171886327742
 20
270.1499966092545
 30
0.0
 11
2043.250100764067
 21
270.1499966092545
 31
0.0
  0
SOLID
  5
1567
330
156A
100
AcDbEntity
  8
0
  6
ByBlock
 62
     0
100
AcDbTrace
 10
108.9918863277421
 20
270.1499966092545
 30
0.0
 11
109.171886327742
 21
270.1799966092545
 31
0.0
 12
109.171886327742
 22
270.1199966092545
 32
0.0
 13
109.171886327742
 23
270.1199966092545
 33
0.0
  0
MTEXT
  5
1568
330
156A
100
AcDbEntity
  8
0
  6
ByBlock
 62
     0
100
AcDbMText
 10
2080.040100764067
 20
270.1499966092545
 30
0.0
 40
20.0
 41
0.0
 71
     5
 72
     1
  1
\A1;3795
 73
     1
 44
1.0
  0
ENDBLK
  5
5C36
330
156A
100
AcDbEntity
  8
Masse
100
AcDbBlockEnd
  0
BLOCK
  5
5C37
330
1576
100
AcDbEntity
  8
0
100
AcDbBlockBegin
  2
*D70
 70
     1
 71
     0
 10
0.0
 20
0.0
 30
0.0
  3
*D70
  1

  0
POINT
  5
156C
330
1576
100
AcDbEntity
  8
DEFPOINTS
  6
ByBlock
 62
     0
100
AcDbPoint
 10
3904.108315200391
 20
-67.49023221144277
 30
0.0
  0
POINT
  5
156D
330
1576
100
AcDbEntity
  8
DEFPOINTS
  6
ByBlock
 62
     0
100
AcDbPoint
 10
108.991886327742
 20
100.2859855676658
 30
0.0
  0
LINE
  5
156E
330
1576
100
AcDbEntity
  8
0
  6
ByBlock
 62
     0
370
    -2
100
AcDbLine
 10
3904.108315200391
 20
-67.42773221144277
 30
0.0
 11
3904.108315200391
 21
270.3299966092545
 31
0.0
  0
LINE
  5
156F
330
1576
100
AcDbEntity
  8
0
  6
ByBlock
 62
     0
370
    -2
100
AcDbLine
 10
108.9918863277421
 20
100.3484855676658
 30
0.0
 11
108.9918863277421
 21
270.3299966092545
 31
0.0
  0
LINE
  5
1570
330
1576
100
AcDbEntity
  8
0
  6
ByBlock
 62
     0
370
    -2
100
AcDbLine
 10
3903.928315200391
 20
270.1499966092545
 30
0.0
 11
2116.830100764067
 21
270.1499966092545
 31
0.0
  0
SOLID
  5
1571
330
1576
100
AcDbEntity
  8
0
  6
ByBlock
 62
     0
100
AcDbTrace
 10
3904.108315200391
 20
270.1499966092545
 30
0.0
 11
3903.928315200391
 21
270.1799966092545
 31
0.0
 12
3903.928315200391
 22
270.1199966092545
 32
0.0
 13
3903.928315200391
 23
270.1199966092545
 33
0.0
  0
LINE
  5
1572
330
1576
100
AcDbEntity
  8
0
  6
ByBlock
 62
     0
370
    -2
100
AcDbLine
 10
109.171886327742
 20
270.1499966092545
 30
0.0
 11
2043.250100764067
 21
270.1499966092545
 31
0.0
  0
SOLID
  5
1573
330
1576
100
AcDbEntity
  8
0
  6
ByBlock
 62
     0
100
AcDbTrace
 10
108.9918863277421
 20
270.1499966092545
 30
0.0
 11
109.171886327742
 21
270.1799966092545
 31
0.0
 12
109.171886327742
 22
270.1199966092545
 32
0.0
 13
109.171886327742
 23
270.1199966092545
 33
0.0
  0
MTEXT
  5
1574
330
1576
100
AcDbEntity
  8
0
  6
ByBlock
 62
     0
100
AcDbMText
 10
2080.040100764067
 20
270.1499966092545
 30
0.0
 40
20.0
 41
0.0
 71
     5
 72
     1
  1
\A1;3795
 73
     1
 44
1.0
  0
ENDBLK
  5
5C38
330
1576
100
AcDbEntity
  8
Masse
100
AcDbBlockEnd
  0
BLOCK
  5
5C39
330
1582
100
AcDbEntity
  8
0
100
AcDbBlockBegin
  2
*D71
 70
     1
 71
     0
 10
0.0
 20
0.0
 30
0.0
  3
*D71
  1

  0
POINT
  5
1578
330
1582
100
AcDbEntity
  8
DEFPOINTS
  6
ByBlock
 62
     0
100
AcDbPoint
 10
3904.108315200391
 20
-67.49023221144277
 30
0.0
  0
POINT
  5
1579
330
1582
100
AcDbEntity
  8
DEFPOINTS
  6
ByBlock
 62
     0
100
AcDbPoint
 10
108.991886327742
 20
100.2859855676658
 30
0.0
  0
LINE
  5
157A
330
1582
100
AcDbEntity
  8
0
  6
ByBlock
 62
     0
370
    -2
100
AcDbLine
 10
3904.108315200391
 20
-67.42773221144277
 30
0.0
 11
3904.108315200391
 21
270.3299966092545
 31
0.0
  0
LINE
  5
157B
330
1582
100
AcDbEntity
  8
0
  6
ByBlock
 62
     0
370
    -2
100
AcDbLine
 10
108.9918863277421
 20
100.3484855676658
 30
0.0
 11
108.9918863277421
 21
270.3299966092545
 31
0.0
  0
LINE
  5
157C
330
1582
100
AcDbEntity
  8
0
  6
ByBlock
 62
     0
370
    -2
100
AcDbLine
 10
3886.108315200391
 20
270.1499966092545
 30
0.0
 11
2116.830100764067
 21
270.1499966092545
 31
0.0
  0
SOLID
  5
157D
330
1582
100
AcDbEntity
  8
0
  6
ByBlock
 62
     0
100
AcDbTrace
 10
3904.108315200391
 20
270.1499966092545
 30
0.0
 11
3886.108315200391
 21
273.1499966092551
 31
0.0
 12
3886.108315200391
 22
267.1499966092539
 32
0.0
 13
3886.108315200391
 23
267.1499966092539
 33
0.0
  0
LINE
  5
157E
330
1582
100
AcDbEntity
  8
0
  6
ByBlock
 62
     0
370
    -2
100
AcDbLine
 10
126.9918863277421
 20
270.1499966092545
 30
0.0
 11
2043.250100764067
 21
270.1499966092545
 31
0.0
  0
SOLID
  5
157F
330
1582
100
AcDbEntity
  8
0
  6
ByBlock
 62
     0
100
AcDbTrace
 10
108.9918863277421
 20
270.1499966092545
 30
0.0
 11
126.9918863277421
 21
273.1499966092551
 31
0.0
 12
126.9918863277421
 22
267.1499966092539
 32
0.0
 13
126.9918863277421
 23
267.1499966092539
 33
0.0
  0
MTEXT
  5
1580
330
1582
100
AcDbEntity
  8
0
  6
ByBlock
 62
     0
100
AcDbMText
 10
2080.040100764067
 20
270.1499966092545
 30
0.0
 40
20.0
 41
0.0
 71
     5
 72
     1
  1
\A1;3795
 73
     1
 44
1.0
  0
ENDBLK
  5
5C3A
330
1582
100
AcDbEntity
  8
Masse
100
AcDbBlockEnd
  0
BLOCK
  5
5C3B
330
158E
100
AcDbEntity
  8
0
100
AcDbBlockBegin
  2
*D72
 70
     1
 71
     0
 10
0.0
 20
0.0
 30
0.0
  3
*D72
  1

  0
POINT
  5
1584
330
158E
100
AcDbEntity
  8
DEFPOINTS
  6
ByBlock
 62
     0
100
AcDbPoint
 10
3904.108315200391
 20
-67.49023221144277
 30
0.0
  0
POINT
  5
1585
330
158E
100
AcDbEntity
  8
DEFPOINTS
  6
ByBlock
 62
     0
100
AcDbPoint
 10
108.991886327742
 20
100.2859855676658
 30
0.0
  0
LINE
  5
1586
330
158E
100
AcDbEntity
  8
0
  6
ByBlock
 62
     0
370
    -2
100
AcDbLine
 10
3904.108315200391
 20
-67.42773221144277
 30
0.0
 11
3904.108315200391
 21
270.3299966092545
 31
0.0
  0
LINE
  5
1587
330
158E
100
AcDbEntity
  8
0
  6
ByBlock
 62
     0
370
    -2
100
AcDbLine
 10
108.9918863277421
 20
100.3484855676658
 30
0.0
 11
108.9918863277421
 21
270.3299966092545
 31
0.0
  0
LINE
  5
1588
330
158E
100
AcDbEntity
  8
0
  6
ByBlock
 62
     0
370
    -2
100
AcDbLine
 10
3886.108315200391
 20
270.1499966092545
 30
0.0
 11
2116.830100764067
 21
270.1499966092545
 31
0.0
  0
SOLID
  5
1589
330
158E
100
AcDbEntity
  8
0
  6
ByBlock
 62
     0
100
AcDbTrace
 10
3904.108315200391
 20
270.1499966092545
 30
0.0
 11
3886.108315200391
 21
273.1499966092551
 31
0.0
 12
3886.108315200391
 22
267.1499966092539
 32
0.0
 13
3886.108315200391
 23
267.1499966092539
 33
0.0
  0
LINE
  5
158A
330
158E
100
AcDbEntity
  8
0
  6
ByBlock
 62
     0
370
    -2
100
AcDbLine
 10
126.9918863277421
 20
270.1499966092545
 30
0.0
 11
2043.250100764067
 21
270.1499966092545
 31
0.0
  0
SOLID
  5
158B
330
158E
100
AcDbEntity
  8
0
  6
ByBlock
 62
     0
100
AcDbTrace
 10
108.9918863277421
 20
270.1499966092545
 30
0.0
 11
126.9918863277421
 21
273.1499966092551
 31
0.0
 12
126.9918863277421
 22
267.1499966092539
 32
0.0
 13
126.9918863277421
 23
267.1499966092539
 33
0.0
  0
MTEXT
  5
158C
330
158E
100
AcDbEntity
  8
0
  6
ByBlock
 62
     0
100
AcDbMText
 10
2080.040100764067
 20
270.1499966092545
 30
0.0
 40
20.0
 41
0.0
 71
     5
 72
     1
  1
\A1;3795
 73
     1
 44
1.0
  0
ENDBLK
  5
5C3C
330
158E
100
AcDbEntity
  8
Masse
100
AcDbBlockEnd
  0
BLOCK
  5
5C3D
330
159B
100
AcDbEntity
  8
0
100
AcDbBlockBegin
  2
*D73
 70
     1
 71
     0
 10
0.0
 20
0.0
 30
0.0
  3
*D73
  1

  0
POINT
  5
1591
330
159B
100
AcDbEntity
  8
DEFPOINTS
  6
ByBlock
 62
     0
100
AcDbPoint
 10
3904.108315200391
 20
-67.42773221144277
 30
0.0
  0
POINT
  5
1592
330
159B
100
AcDbEntity
  8
DEFPOINTS
  6
ByBlock
 62
     0
100
AcDbPoint
 10
4036.374090179943
 20
-444.9589052418648
 30
0.0
  0
LINE
  5
1593
330
159B
100
AcDbEntity
  8
0
  6
ByBlock
 62
     0
370
    -2
100
AcDbLine
 10
3904.167300018456
 20
-67.40706723532763
 30
0.0
 11
4086.87321620187
 21
-3.397148787080993
 31
0.0
  0
LINE
  5
1594
330
159B
100
AcDbEntity
  8
0
  6
ByBlock
 62
     0
370
    -2
100
AcDbLine
 10
4036.433074998008
 20
-444.9382402657496
 30
0.0
 11
4219.138991181421
 21
-380.9283218175031
 31
0.0
  0
LINE
  5
1595
330
159B
100
AcDbEntity
  8
0
  6
ByBlock
 62
     0
370
    -2
100
AcDbLine
 10
4092.654853047003
 20
-20.44429152101146
 30
0.0
 11
4149.301256624118
 21
-182.1322504335036
 31
0.0
  0
SOLID
  5
1596
330
159B
100
AcDbEntity
  8
0
  6
ByBlock
 62
     0
100
AcDbTrace
 10
4086.703339925843
 20
-3.456663918292599
 30
0.0
 11
4089.823581779883
 21
-21.43621037453839
 31
0.0
 12
4095.486124314124
 22
-19.45237266748453
 32
0.0
 13
4095.486124314124
 23
-19.45237266748453
 33
0.0
  0
LINE
  5
1597
330
159B
100
AcDbEntity
  8
0
  6
ByBlock
 62
     0
370
    -2
100
AcDbLine
 10
4213.017601784234
 20
-364.0002093459958
 30
0.0
 11
4156.37119820712
 21
-202.3122504335036
 31
0.0
  0
SOLID
  5
1598
330
159B
100
AcDbEntity
  8
0
  6
ByBlock
 62
     0
100
AcDbTrace
 10
4218.969114905394
 20
-380.9878369487146
 30
0.0
 11
4210.186330517114
 21
-364.9921281995227
 31
0.0
 12
4215.848873051355
 22
-363.0082904924689
 32
0.0
 13
4215.848873051355
 23
-363.0082904924689
 33
0.0
  0
MTEXT
  5
1599
330
159B
100
AcDbEntity
  8
0
  6
ByBlock
 62
     0
100
AcDbMText
 10
4152.836227415619
 20
-192.2222504335036
 30
0.0
 40
20.0
 41
0.0
 71
     5
 72
     1
  1
\A1;400
 73
     1
 44
1.0
  0
ENDBLK
  5
5C3E
330
159B
100
AcDbEntity
  8
Masse
100
AcDbBlockEnd
  0
BLOCK
  5
5C3F
330
15A8
100
AcDbEntity
  8
0
100
AcDbBlockBegin
  2
*D74
 70
     1
 71
     0
 10
0.0
 20
0.0
 30
0.0
  3
*D74
  1

  0
POINT
  5
159E
330
15A8
100
AcDbEntity
  8
DEFPOINTS
  6
ByBlock
 62
     0
100
AcDbPoint
 10
-91.00811432774199
 20
-246.1241755676657
 30
0.0
  0
POINT
  5
159F
330
15A8
100
AcDbEntity
  8
DEFPOINTS
  6
ByBlock
 62
     0
100
AcDbPoint
 10
108.991886327742
 20
100.2859855676658
 30
0.0
  0
LINE
  5
15A0
330
15A8
100
AcDbEntity
  8
0
  6
ByBlock
 62
     0
370
    -2
100
AcDbLine
 10
-91.0622409154194
 20
-246.0929255675633
 30
0.0
 11
-186.7264482877689
 21
-190.8611694479683
 31
0.0
  0
LINE
  5
15A1
330
15A8
100
AcDbEntity
  8
0
  6
ByBlock
 62
     0
370
    -2
100
AcDbLine
 10
108.9377597400646
 20
100.3172355677682
 30
0.0
 11
13.27355236771512
 21
155.5489916873633
 31
0.0
  0
LINE
  5
15A2
330
15A8
100
AcDbEntity
  8
0
  6
ByBlock
 62
     0
370
    -2
100
AcDbLine
 10
-177.5705636857612
 20
-175.3627121971733
 30
0.0
 11
-92.39602762909595
 21
-27.83608888059746
 31
0.0
  0
SOLID
  5
15A3
330
15A8
100
AcDbEntity
  8
0
  6
ByBlock
 62
     0
100
AcDbTrace
 10
-186.570563715258
 20
-190.9511694482632
 30
0.0
 11
-174.9724874772457
 21
-176.8627122020897
 31
0.0
 12
-180.1686398942767
 22
-173.8627121922569
 32
0.0
 13
-180.1686398942767
 23
-173.8627121922569
 33
0.0
  0
LINE
  5
15A4
330
15A8
100
AcDbEntity
  8
0
  6
ByBlock
 62
     0
370
    -2
100
AcDbLine
 10
4.429436910729245
 20
139.8705344359784
 30
0.0
 11
-80.745099145936
 21
-7.656088880597477
 31
0.0
  0
SOLID
  5
15A5
330
15A8
100
AcDbEntity
  8
0
  6
ByBlock
 62
     0
100
AcDbTrace
 10
13.42943694022603
 20
155.4589916870683
 30
0.0
 11
7.027513119244749
 21
138.3705344310619
 31
0.0
 12
1.831360702213741
 22
141.3705344408948
 32
0.0
 13
1.831360702213741
 23
141.3705344408948
 33
0.0
  0
MTEXT
  5
15A6
330
15A8
100
AcDbEntity
  8
0
  6
ByBlock
 62
     0
100
AcDbMText
 10
-86.57056338751598
 20
-17.74608888059747
 30
0.0
 40
20.0
 41
0.0
 71
     5
 72
     1
  1
\A1;400
 73
     1
 44
1.0
  0
ENDBLK
  5
5C40
330
15A8
100
AcDbEntity
  8
Masse
100
AcDbBlockEnd
  0
BLOCK
  5
5C41
330
15B5
100
AcDbEntity
  8
0
100
AcDbBlockBegin
  2
*D75
 70
     1
 71
     0
 10
0.0
 20
0.0
 30
0.0
  3
*D75
  1

  0
POINT
  5
15AB
330
15B5
100
AcDbEntity
  8
DEFPOINTS
  6
ByBlock
 62
     0
100
AcDbPoint
 10
4036.433074998008
 20
-444.9382402657496
 30
0.0
  0
POINT
  5
15AC
330
15B5
100
AcDbEntity
  8
DEFPOINTS
  6
ByBlock
 62
     0
100
AcDbPoint
 10
-91.00811432774199
 20
-246.1241755676657
 30
0.0
  0
LINE
  5
15AD
330
15B5
100
AcDbEntity
  8
0
  6
ByBlock
 62
     0
370
    -2
100
AcDbLine
 10
4036.433074998008
 20
-445.0007402657496
 30
0.0
 11
4036.433074998008
 21
-596.4271036748221
 31
0.0
  0
LINE
  5
15AE
330
15B5
100
AcDbEntity
  8
0
  6
ByBlock
 62
     0
370
    -2
100
AcDbLine
 10
-91.00811432774162
 20
-246.1866755676657
 30
0.0
 11
-91.00811432774162
 21
-596.4271036748221
 31
0.0
  0
LINE
  5
15AF
330
15B5
100
AcDbEntity
  8
0
  6
ByBlock
 62
     0
370
    -2
100
AcDbLine
 10
4018.433074998008
 20
-596.247103674822
 30
0.0
 11
2006.202480335133
 21
-596.247103674822
 31
0.0
  0
SOLID
  5
15B0
330
15B5
100
AcDbEntity
  8
0
  6
ByBlock
 62
     0
100
AcDbTrace
 10
4036.433074998008
 20
-596.247103674822
 30
0.0
 11
4018.433074998008
 21
-593.2471036748215
 31
0.0
 12
4018.433074998008
 22
-599.2471036748226
 32
0.0
 13
4018.433074998008
 23
-599.2471036748226
 33
0.0
  0
LINE
  5
15B1
330
15B5
100
AcDbEntity
  8
0
  6
ByBlock
 62
     0
370
    -2
100
AcDbLine
 10
-73.00811432774162
 20
-596.247103674822
 30
0.0
 11
1939.222480335133
 21
-596.247103674822
 31
0.0
  0
SOLID
  5
15B2
330
15B5
100
AcDbEntity
  8
0
  6
ByBlock
 62
     0
100
AcDbTrace
 10
-91.00811432774162
 20
-596.247103674822
 30
0.0
 11
-73.00811432774162
 21
-593.2471036748215
 31
0.0
 12
-73.00811432774162
 22
-599.2471036748226
 32
0.0
 13
-73.00811432774162
 23
-599.2471036748226
 33
0.0
  0
MTEXT
  5
15B3
330
15B5
100
AcDbEntity
  8
0
  6
ByBlock
 62
     0
100
AcDbMText
 10
1972.712480335133
 20
-596.247103674822
 30
0.0
 40
20.0
 41
0.0
 71
     5
 72
     1
  1
\A1;4127
 73
     1
 44
1.0
  0
ENDBLK
  5
5C42
330
15B5
100
AcDbEntity
  8
Masse
100
AcDbBlockEnd
  0
BLOCK
  5
5C43
330
15C2
100
AcDbEntity
  8
0
100
AcDbBlockBegin
  2
*D76
 70
     1
 71
     0
 10
0.0
 20
0.0
 30
0.0
  3
*D76
  1

  0
POINT
  5
15B8
330
15C2
100
AcDbEntity
  8
DEFPOINTS
  6
ByBlock
 62
     0
100
AcDbPoint
 10
4036.433074998008
 20
-444.9382402657496
 30
0.0
  0
POINT
  5
15B9
330
15C2
100
AcDbEntity
  8
DEFPOINTS
  6
ByBlock
 62
     0
100
AcDbPoint
 10
108.991886327742
 20
100.2859855676658
 30
0.0
  0
LINE
  5
15BA
330
15C2
100
AcDbEntity
  8
0
  6
ByBlock
 62
     0
370
    -2
100
AcDbLine
 10
4036.441669097665
 20
-444.8763339538655
 30
0.0
 11
4051.813083933218
 21
-334.1506455253837
 31
0.0
  0
LINE
  5
15BB
330
15C2
100
AcDbEntity
  8
0
  6
ByBlock
 62
     0
370
    -2
100
AcDbLine
 10
109.0004804273985
 20
100.3478918795499
 30
0.0
 11
124.3718952629524
 21
211.0735803080324
 31
0.0
  0
LINE
  5
15BC
330
15C2
100
AcDbEntity
  8
0
  6
ByBlock
 62
     0
370
    -2
100
AcDbLine
 10
4033.959315103587
 20
-331.8538350024841
 30
0.0
 11
2160.749544930674
 21
-71.80682278690183
 31
0.0
  0
SOLID
  5
15BD
330
15C2
100
AcDbEntity
  8
0
  6
ByBlock
 62
     0
100
AcDbTrace
 10
4051.788332926207
 20
-334.3289357036099
 30
0.0
 11
4034.371831887108
 21
-328.8823320320469
 31
0.0
 12
4033.546798320066
 22
-334.8253379729213
 32
0.0
 13
4033.546798320066
 23
-334.8253379729213
 33
0.0
  0
LINE
  5
15BE
330
15C2
100
AcDbEntity
  8
0
  6
ByBlock
 62
     0
370
    -2
100
AcDbLine
 10
142.1761620785607
 20
208.4201894286804
 30
0.0
 11
2015.385932251473
 21
-51.62682278690184
 31
0.0
  0
SOLID
  5
15BF
330
15C2
100
AcDbEntity
  8
0
  6
ByBlock
 62
     0
100
AcDbTrace
 10
124.3471442559411
 20
210.8952901298062
 30
0.0
 11
142.5886788620817
 21
211.3916923991176
 31
0.0
 12
141.7636452950397
 22
205.4486864582433
 32
0.0
 13
141.7636452950397
 23
205.4486864582433
 33
0.0
  0
MTEXT
  5
15C0
330
15C2
100
AcDbEntity
  8
0
  6
ByBlock
 62
     0
100
AcDbMText
 10
2088.067738591074
 20
-61.71682278690184
 30
0.0
 40
20.0
 41
0.0
 71
     5
 72
     1
  1
\A1;3965
 73
     1
 44
1.0
  0
ENDBLK
  5
5C44
330
15C2
100
AcDbEntity
  8
Masse
100
AcDbBlockEnd
  0
BLOCK
  5
5C45
330
15DC
100
AcDbEntity
  8
0
100
AcDbBlockBegin
  2
*D77
 70
     1
 71
     0
 10
0.0
 20
0.0
 30
0.0
  3
*D77
  1

  0
POINT
  5
15D2
330
15DC
100
AcDbEntity
  8
DEFPOINTS
  6
ByBlock
 62
     0
100
AcDbPoint
 10
3904.108315200391
 20
-67.4902322114427
 30
0.0
  0
POINT
  5
15D3
330
15DC
100
AcDbEntity
  8
DEFPOINTS
  6
ByBlock
 62
     0
100
AcDbPoint
 10
-91.00811432774162
 20
-246.1866755676657
 30
0.0
  0
LINE
  5
15D4
330
15DC
100
AcDbEntity
  8
0
  6
ByBlock
 62
     0
370
    -2
100
AcDbLine
 10
3904.10552244768
 20
-67.42779463836132
 30
0.0
 11
3897.30803591685
 21
84.54361345888707
 31
0.0
  0
LINE
  5
15D5
330
15DC
100
AcDbEntity
  8
0
  6
ByBlock
 62
     0
370
    -2
100
AcDbLine
 10
-91.01090708045345
 20
-246.1242379945844
 30
0.0
 11
-97.80839361128352
 21
-94.15282989733507
 31
0.0
  0
LINE
  5
15D6
330
15DC
100
AcDbEntity
  8
0
  6
ByBlock
 62
     0
370
    -2
100
AcDbLine
 10
3879.334057997222
 20
83.55948046749253
 30
0.0
 11
2125.339996844818
 21
5.105571570301677
 31
0.0
  0
SOLID
  5
15D7
330
15DC
100
AcDbEntity
  8
0
  6
ByBlock
 62
     0
100
AcDbTrace
 10
3897.316079044659
 20
84.36379324841271
 30
0.0
 11
3879.200005867069
 21
86.5564839753992
 31
0.0
 12
3879.468110127376
 22
80.56247695958585
 32
0.0
 13
3879.468110127376
 23
80.56247695958585
 33
0.0
  0
LINE
  5
15D8
330
15DC
100
AcDbEntity
  8
0
  6
ByBlock
 62
     0
370
    -2
100
AcDbLine
 10
-79.81832943603784
 20
-93.52833732688927
 30
0.0
 11
1674.175731716366
 21
-15.07442842969843
 31
0.0
  0
SOLID
  5
15D9
330
15DC
100
AcDbEntity
  8
0
  6
ByBlock
 62
     0
100
AcDbTrace
 10
-97.80035048347432
 20
-94.33265010780944
 30
0.0
 11
-79.95238156619122
 21
-90.5313338189826
 31
0.0
 12
-79.68427730588445
 22
-96.52534083479596
 32
0.0
 13
-79.68427730588445
 23
-96.52534083479596
 33
0.0
  0
MTEXT
  5
15DA
330
15DC
100
AcDbEntity
  8
0
  6
ByBlock
 62
     0
100
AcDbMText
 10
1899.757864280592
 20
-4.984428429698372
 30
0.0
 40
20.0
 41
0.0
 71
     5
 72
     1
  1
\A1;3999
 73
     1
 44
1.0
  0
ENDBLK
  5
5C46
330
15DC
100
AcDbEntity
  8
Masse
100
AcDbBlockEnd
  0
BLOCK
  5
5C47
330
15EF
100
AcDbEntity
  8
0
100
AcDbBlockBegin
  2
*D78
 70
     1
 71
     0
 10
0.0
 20
0.0
 30
0.0
  3
*D78
  1

  0
POINT
  5
15E5
330
15EF
100
AcDbEntity
  8
DEFPOINTS
  6
ByBlock
 62
     0
100
AcDbPoint
 10
3736.332097421283
 20
100.2859855676658
 30
0.0
  0
POINT
  5
15E6
330
15EF
100
AcDbEntity
  8
DEFPOINTS
  6
ByBlock
 62
     0
100
AcDbPoint
 10
4036.374090179943
 20
-444.9589052418648
 30
0.0
  0
LINE
  5
15E7
330
15EF
100
AcDbEntity
  8
0
  6
ByBlock
 62
     0
370
    -2
100
AcDbLine
 10
3736.394597421283
 20
100.2859855676658
 30
0.0
 11
4328.788650881811
 21
100.2859855676658
 31
0.0
  0
LINE
  5
15E8
330
15EF
100
AcDbEntity
  8
0
  6
ByBlock
 62
     0
370
    -2
100
AcDbLine
 10
4036.436590179943
 20
-444.9589052418648
 30
0.0
 11
4328.788650881811
 21
-444.9589052418648
 31
0.0
  0
LINE
  5
15E9
330
15EF
100
AcDbEntity
  8
0
  6
ByBlock
 62
     0
370
    -2
100
AcDbLine
 10
4328.608650881811
 20
82.28598556766582
 30
0.0
 11
4328.608650881811
 21
-162.2464598370995
 31
0.0
  0
SOLID
  5
15EA
330
15EF
100
AcDbEntity
  8
0
  6
ByBlock
 62
     0
100
AcDbTrace
 10
4328.608650881811
 20
100.2859855676658
 30
0.0
 11
4325.60865088181
 21
82.28598556766582
 31
0.0
 12
4331.608650881812
 22
82.28598556766582
 32
0.0
 13
4331.608650881812
 23
82.28598556766582
 33
0.0
  0
LINE
  5
15EB
330
15EF
100
AcDbEntity
  8
0
  6
ByBlock
 62
     0
370
    -2
100
AcDbLine
 10
4328.608650881811
 20
-426.9589052418648
 30
0.0
 11
4328.608650881811
 21
-182.4264598370995
 31
0.0
  0
SOLID
  5
15EC
330
15EF
100
AcDbEntity
  8
0
  6
ByBlock
 62
     0
100
AcDbTrace
 10
4328.608650881811
 20
-444.9589052418648
 30
0.0
 11
4325.60865088181
 21
-426.9589052418648
 31
0.0
 12
4331.608650881812
 22
-426.9589052418648
 32
0.0
 13
4331.608650881812
 23
-426.9589052418648
 33
0.0
  0
MTEXT
  5
15ED
330
15EF
100
AcDbEntity
  8
0
  6
ByBlock
 62
     0
100
AcDbMText
 10
4328.608650881811
 20
-172.3364598370995
 30
0.0
 40
20.0
 41
0.0
 71
     5
 72
     1
  1
\A1;545
 73
     1
 44
1.0
  0
ENDBLK
  5
5C48
330
15EF
100
AcDbEntity
  8
Masse
100
AcDbBlockEnd
  0
ENDSEC
  0
SECTION
  2
ENTITIES
  0
LINE
  5
13C5
330
1F
100
AcDbEntity
  8
0
  6
ByBlock
100
AcDbLine
 10
108.991886327742
 20
100.2859855676658
 30
0.0
 11
8.991885999999994
 21
-72.919095
 31
0.0
  0
LINE
  5
13C6
330
1F
100
AcDbEntity
  8
0
  6
ByBlock
100
AcDbLine
 10
-91.00811432774199
 20
-246.1241755676657
 30
0.0
 11
8.991885999999994
 21
-72.919095
 31
0.0
  0
LINE
  5
13CD
330
1F
100
AcDbEntity
  8
0
  6
ByBlock
100
AcDbLine
 10
253.3837382722376
 20
-444.9589052418645
 30
0.0
 11
-91.00811432774194
 21
-246.1241755676658
 31
0.0
  0
LINE
  5
13CE
330
1F
100
AcDbEntity
  8
0
  6
ByBlock
100
AcDbLine
 10
3904.108315200391
 20
-67.49023221144277
 30
0.0
 11
3967.970059
 21
-257.020382
 31
0.0
  0
LINE
  5
13CF
330
1F
100
AcDbEntity
  8
0
  6
ByBlock
100
AcDbLine
 10
4036.374090179943
 20
-444.9589052418648
 30
0.0
 11
3967.970059
 21
-257.020382
 31
0.0
  0
LINE
  5
1416
330
1F
100
AcDbEntity
  8
0
  6
ByBlock
100
AcDbLine
 10
108.991886327742
 20
100.2859855676658
 30
0.0
 11
3736.332097421283
 21
100.2859855676658
 31
0.0
  0
LINE
  5
141A
330
1F
100
AcDbEntity
  8
0
  6
ByBlock
100
AcDbLine
 10
3904.108315200391
 20
-67.4902322114427
 30
0.0
 11
3736.332097421283
 21
100.2859855676659
 31
0.0
  0
LINE
  5
141F
330
1F
100
AcDbEntity
  8
0
  6
ByBlock
100
AcDbLine
 10
4036.374090179946
 20
-444.9589052418646
 30
0.0
 11
253.3837382722376
 21
-444.9589052418646
 31
0.0
  0
DIMENSION
  5
153A
330
1F
100
AcDbEntity
  8
Masse
  6
ByBlock
100
AcDbDimension
  2
*D72
 10
108.991886327742
 20
270.1499966092545
 30
0.0
 11
2080.040100764067
 21
270.1499966092545
 31
0.0
 70
    32
  1
<>
 71
    33
 72
    90
 41
0.0
 42
3795.116428872649
  3
Standard
100
AcDbAlignedDimension
 13
3904.108315200391
 23
-67.49023221144277
 33
0.0
 14
108.991886327742
 24
100.2859855676658
 34
0.0
100
AcDbRotatedDimension
1001
ACAD
1000
DSTYLE
1002
{
1070
    41
1040
18.0
1070
   140
1040
20.0
1070
   271
1070
     0
1002
}
  0
DIMENSION
  5
158F
330
1F
100
AcDbEntity
  8
Masse
  6
ByBlock
100
AcDbDimension
  2
*D73
 10
4218.969114905394
 20
-380.9878369487146
 30
0.0
 11
4152.836227415619
 21
-192.2222504335036
 31
0.0
 70
    33
 71
   255
 72
   107
 41
0.0
 42
400.0300261738709
  3
Standard
100
AcDbAlignedDimension
 13
3904.108315200391
 23
-67.42773221144277
 33
0.0
 14
4036.374090179943
 24
-444.9589052418648
 34
0.0
1001
ACAD
1000
DSTYLE
1002
{
1070
    41
1040
18.0
1070
   140
1040
20.0
1070
   271
1070
     0
1002
}
  0
DIMENSION
  5
159C
330
1F
100
AcDbEntity
  8
Masse
  6
ByBlock
100
AcDbDimension
  2
*D74
 10
13.429436940226
 20
155.4589916870683
 30
0.0
 11
-86.57056338751598
 21
-17.74608888059747
 31
0.0
 70
    33
 71
   155
 72
   124
 41
0.0
 42
399.9999999999999
  3
Standard
100
AcDbAlignedDimension
 13
-91.00811432774199
 23
-246.1241755676657
 33
0.0
 14
108.991886327742
 24
100.2859855676658
 34
0.0
1001
ACAD
1000
DSTYLE
1002
{
1070
    41
1040
18.0
1070
   140
1040
20.0
1070
   271
1070
     0
1002
}
  0
DIMENSION
  5
15A9
330
1F
100
AcDbEntity
  8
Masse
  6
ByBlock
100
AcDbDimension
  2
*D75
 10
-91.00811432774199
 20
-596.247103674822
 30
0.0
 11
1972.712480335133
 21
-596.247103674822
 31
0.0
 70
    32
 71
    64
 72
   218
 41
-260.899233
 42
4127.44118932575
  3
Standard
100
AcDbAlignedDimension
 13
4036.433074998008
 23
-444.9382402657496
 33
0.0
 14
-91.00811432774199
 24
-246.1241755676657
 34
0.0
100
AcDbRotatedDimension
1001
ACAD
1000
DSTYLE
1002
{
1070
    41
1040
18.0
1070
   140
1040
20.0
1070
   271
1070
     0
1002
}
  0
DIMENSION
  5
15B6
330
1F
100
AcDbEntity
  8
Masse
  6
ByBlock
100
AcDbDimension
  2
*D76
 10
124.3471442559413
 20
210.8952901298062
 30
0.0
 11
2088.067738591074
 21
-61.71682278690184
 31
0.0
 70
    33
 71
   255
 72
   107
 41
0.0
 42
3965.105767429081
  3
Standard
100
AcDbAlignedDimension
 13
4036.433074998008
 23
-444.9382402657496
 33
0.0
 14
108.991886327742
 24
100.2859855676658
 34
0.0
1001
ACAD
1000
DSTYLE
1002
{
1070
    41
1040
18.0
1070
   140
1040
20.0
1070
   271
1070
     0
1002
}
  0
DIMENSION
  5
15D0
330
1F
100
AcDbEntity
  8
Masse
  6
ByBlock
100
AcDbDimension
  2
*D77
 10
-97.80035048347406
 20
-94.33265010780943
 30
0.0
 11
1899.757864280592
 21
-4.984428429698372
 31
0.0
 70
    33
 71
     1
 72
   213
 41
0.0
 42
3999.110864223919
  3
Standard
100
AcDbAlignedDimension
 13
3904.108315200391
 23
-67.4902322114427
 33
0.0
 14
-91.00811432774162
 24
-246.1866755676657
 34
0.0
1001
ACAD
1000
DSTYLE
1002
{
1070
    41
1040
18.0
1070
   140
1040
20.0
1070
   271
1070
     0
1002
}
  0
DIMENSION
  5
15E3
330
1F
100
AcDbEntity
  8
Masse
  6
ByBlock
100
AcDbDimension
  2
*D78
 10
4328.608650881811
 20
-444.9589052418648
 30
0.0
 11
4328.608650881811
 21
-172.3364598370995
 31
0.0
 70
    32
 71
     0
 72
     0
 41
0.0
 42
545.2448908095306
  3
Standard
100
AcDbAlignedDimension
 13
3736.332097421283
 23
100.2859855676658
 33
0.0
 14
4036.374090179943
 24
-444.9589052418648
 34
0.0
 50
90.0
100
AcDbRotatedDimension
1001
ACAD
1000
DSTYLE
1002
{
1070
    41
1040
18.0
1070
   140
1040
20.0
1070
   271
1070
     0
1002
}
  0
LWPOLYLINE
  5
57B2
330
1F
100
AcDbEntity
  8
0
  6
ByBlock
100
AcDbPolyline
 90
        3
 70
     0
 43
9.0
 10
8.991886000000001
 20
-72.919095
 10
26.312394
 20
-82.919095
 10
168.34056
 20
-164.919095
  0
LWPOLYLINE
  5
57CC
330
1F
100
AcDbEntity
  8
0
  6
ByBlock
100
AcDbPolyline
 90
        6
 70
     0
 43
9.0
 10
26.312394
 20
-82.919095
 10
174.136785
 20
-152.099739
 10
328.246375
 20
-208.191043
 10
483.555792
 20
-249.820935
 10
645.064263
 20
-278.299237
 10
783.982806
 20
-290.453035
  0
LWPOLYLINE
  5
57E5
330
1F
100
AcDbEntity
  8
0
  6
ByBlock
100
AcDbPolyline
 90
        6
 70
     0
 43
9.0
 10
67.64793800000001
 20
-74.41945000000001
 10
180.5184276307692
 20
-138.9168726461539
 10
328.246375
 20
-208.191043
 10
484.617985
 20
-235.763577
 10
648.617983
 20
-235.792256
 10
812.617984
 20
-235.763577
  0
LWPOLYLINE
  5
5807
330
1F
100
AcDbEntity
  8
0
  6
ByBlock
100
AcDbPolyline
 90
        6
 70
     0
 43
9.0
 10
97.64793800000001
 20
-22.457926
 10
210.23124
 20
-87.457926
 10
487.0820636079141
 20
-189.5327292549207
 10
809.837983
 20
-207.792256
 10
962.447983
 20
-193.792256
 10
1257.890309
 20
-141.697803
  0
LWPOLYLINE
  5
5814
330
1F
100
AcDbEntity
  8
0
  6
ByBlock
100
AcDbPolyline
 90
        4
 70
     0
 43
9.0
 10
82.503998
 20
-44.876982
 10
195.0873
 20
-109.876982
 10
486.007984
 20
-221.763576
 10
648.617984
 20
-235.763577
  0
LWPOLYLINE
  5
5821
330
1F
100
AcDbEntity
  8
0
  6
ByBlock
100
AcDbPolyline
 90
        4
 70
     0
 43
9.0
 10
648.617984
 20
-235.763577
 10
811.227984
 20
-221.763577
 10
964.146526
 20
-207.609779
 10
1628.595514942712
 20
-207.8285089339135
  0
LWPOLYLINE
  5
5826
330
1F
100
AcDbEntity
  8
0
  6
ByBlock
100
AcDbPolyline
 90
        2
 70
     0
 43
9.0
 10
809.837983
 20
-207.792256
 10
964.146526
 20
-207.609779
  0
LWPOLYLINE
  5
582B
330
1F
100
AcDbEntity
  8
0
  6
ByBlock
100
AcDbPolyline
 90
        2
 70
     0
 43
9.0
 10
962.447983
 20
-193.792256
 10
811.227984
 20
-221.763577
  0
LWPOLYLINE
  5
5830
330
1F
100
AcDbEntity
  8
0
  6
ByBlock
100
AcDbPolyline
 90
        2
 70
     0
 43
9.0
 10
483.555792
 20
-249.820935
 10
646.1264550000001
 20
-264.2705570000001
  0
LWPOLYLINE
  5
583D
330
1F
100
AcDbEntity
  8
0
  6
ByBlock
100
AcDbPolyline
 90
        4
 70
     0
 43
9.0
 10
783.9828049999999
 20
-330.453034
 10
622.562931652868
 20
-317.5787876331804
 10
382.2547090669566
 20
-260.4323200670185
 10
168.34056
 20
-164.919095
  0
LWPOLYLINE
  5
5843
330
1F
100
AcDbEntity
  8
0
  6
ByBlock
100
AcDbPolyline
 90
        2
 70
     0
 43
9.0
 10
1582.00878
 20
-99.21950200000001
 10
1118.00878
 20
-99.21950099999999
  0
LWPOLYLINE
  5
5868
330
1F
100
AcDbEntity
  8
0
  6
ByBlock
100
AcDbPolyline
 90
       10
 70
     0
 43
9.0
 10
1257.890309
 20
-141.697803
 10
1419.39878
 20
-113.219502
 10
1582.00878
 20
-99.21950200000001
 10
1964.276741
 20
-99.21950200000001
 10
2120.5601015
 20
-113.272189
 10
2274.519459998832
 20
-154.5253753364479
 10
2118.147817
 20
-126.952933
 10
1968.147817
 20
-126.952932
 10
1420.460972
 20
-127.248181
 10
1257.890309
 20
-141.697803
  0
LWPOLYLINE
  5
5879
330
1F
100
AcDbEntity
  8
0
  6
ByBlock
100
AcDbPolyline
 90
        5
 70
     0
 43
9.0
 10
3967.970059
 20
-257.020382
 10
3949.176206780814
 20
-263.8607843977915
 10
3795.2168815
 20
-305.114062
 10
3647.934669881046
 20
-326.3801826644617
 10
3421.440871
 20
-329.880889
  0
LWPOLYLINE
  5
5882
330
1F
100
AcDbEntity
  8
0
  6
ByBlock
100
AcDbPolyline
 90
        3
 70
     0
 43
9.0
 10
3628.804597
 20
-291.433319
 10
3792.804597
 20
-291.433319
 10
3949.176207
 20
-263.860785
  0
LWPOLYLINE
  5
588B
330
1F
100
AcDbEntity
  8
0
  6
ByBlock
100
AcDbPolyline
 90
        3
 70
     0
 43
9.0
 10
3926.1121695
 20
-241.341213
 10
3791.414597
 20
-277.433319
 10
3628.804597
 20
-291.433319
  0
LWPOLYLINE
  5
58A1
330
1F
100
AcDbEntity
  8
0
  6
ByBlock
100
AcDbPolyline
 90
        6
 70
     0
 43
9.0
 10
3548.299249
 20
-173.244412
 10
2957.414597
 20
-277.433319
 10
2794.804597
 20
-291.433319
 10
2632.194597
 20
-277.433319
 10
2556.4272125
 20
-257.131509
 10
2274.519427
 20
-154.525466
  0
LWPOLYLINE
  5
58AA
330
1F
100
AcDbEntity
  8
0
  6
ByBlock
100
AcDbPolyline
 90
        3
 70
     0
 43
9.0
 10
2794.804597
 20
-291.433319
 10
2958.804597
 20
-291.433319
 10
3628.804597
 20
-291.433319
  0
LWPOLYLINE
  5
58B7
330
1F
100
AcDbEntity
  8
0
  6
ByBlock
100
AcDbPolyline
 90
        4
 70
     0
 43
9.0
 10
3421.440871
 20
-329.880889
 10
2821.440871
 20
-329.880889
 10
2658.83087
 20
-315.880889
 10
2599.742405
 20
-305.461998
  0
LWPOLYLINE
  5
58C1
330
1F
100
AcDbEntity
  8
0
  6
ByBlock
100
AcDbPolyline
 90
        3
 70
     0
 43
9.0
 10
2794.804597
 20
-291.433318
 10
2446.982805
 20
-292.453034
 10
783.982806
 20
-290.453034
  0
LWPOLYLINE
  5
58CA
330
1F
100
AcDbEntity
  8
0
  6
ByBlock
100
AcDbPolyline
 90
        3
 70
     0
 43
9.0
 10
2821.440871
 20
-329.880889
 10
2657.440871
 20
-329.880889
 10
783.9828049999999
 20
-330.453034
  0
LWPOLYLINE
  5
58E3
330
1F
100
AcDbEntity
  8
0
  6
ByBlock
100
AcDbPolyline
 90
        7
 70
     0
 43
9.0
 10
1628.595514942712
 20
-207.8285089339135
 10
1986.146526
 20
-209.609779
 10
2125.065068
 20
-221.763576
 10
2286.57354
 20
-250.241877
 10
2448.082012
 20
-278.720178
 10
2599.742405
 20
-305.461998
 10
2446.982805
 20
-292.453034
  0
LWPOLYLINE
  5
58F0
330
1F
100
AcDbEntity
  8
0
  6
ByBlock
100
AcDbPolyline
 90
        4
 70
     0
 43
9.0
 10
2600.804597
 20
-291.433319
 10
2448.082012
 20
-278.720178
 10
2285.511349
 20
-264.270558
 10
646.1264550000001
 20
-264.2705570000001
  0
LWPOLYLINE
  5
58F9
330
1F
100
AcDbEntity
  8
0
  6
ByBlock
100
AcDbPolyline
 90
        3
 70
     0
 43
9.0
 10
2286.57354
 20
-250.241877
 10
2124.002877
 20
-235.792256
 10
812.617984
 20
-235.792256
  0
LWPOLYLINE
  5
58FD
330
1F
100
AcDbEntity
  8
0
  6
ByBlock
100
AcDbPolyline
 90
        2
 70
     0
 43
9.0
 10
1118.00878
 20
-99.21950099999999
 10
654.0087799999997
 20
-99.21949999999998
  0
LINE
  5
5B02
330
1F
100
AcDbEntity
  8
Bedienraum
  6
ByBlock
100
AcDbLine
 10
747.1660829261465
 20
-1144.958905241865
 30
0.0
 11
747.1660829261468
 21
-444.9589052418646
 31
0.0
  0
LINE
  5
5B04
330
1F
100
AcDbEntity
  8
Bedienraum
  6
ByBlock
100
AcDbLine
 10
3260.064542045361
 20
-1144.958905241865
 30
0.0
 11
3260.064542045361
 21
-444.9589052418646
 31
0.0
  0
LINE
  5
5B06
330
1F
100
AcDbEntity
  8
Bedienraum
  6
ByBlock
100
AcDbLine
 10
747.1660829261465
 20
-1144.958905241865
 30
0.0
 11
3260.064542045361
 21
-1144.958905241865
 31
0.0
  0
VIEWPORT
  5
13C3
330
73
100
AcDbEntity
 67
     1
  8
0
100
AcDbViewport
 10
7.8
 20
4.5
 30
0.0
 40
15.64
 41
9.0
 68
     1
 69
     1
 12
6.0
 22
4.5
 13
0.0
 23
0.0
 14
0.5
 24
0.5
 15
0.5
 25
0.5
 16
0.0
 26
0.0
 36
1.0
 17
0.0
 27
0.0
 37
0.0
 42
50.0
 43
0.0
 44
0.0
 45
12.0
 50
0.0
 51
0.0
 72
   100
 90
    32880
  1

281
     0
 71
     0
 74
     0
110
0.0
120
0.0
130
0.0
111
1.0
121
0.0
131
0.0
112
0.0
122
1.0
132
0.0
 79
     0
146
0.0
170
     0
  0
ENDSEC
  0
SECTION
  2
OBJECTS
  0
DICTIONARY
  5
C
330
0
100
AcDbDictionary
281
     1
  3
ACAD_COLOR
350
6C
  3
ACAD_GROUP
350
D
  3
ACAD_LAYOUT
350
1A
  3
ACAD_MATERIAL
350
6B
  3
ACAD_MLINESTYLE
350
17
  3
ACAD_PLOTSETTINGS
350
19
  3
ACAD_PLOTSTYLENAME
350
E
  3
ACAD_TABLESTYLE
350
92
  3
AcDbVariableDictionary
350
59
  0
DICTIONARY
  5
6C
102
{ACAD_REACTORS
330
C
102
}
330
C
100
AcDbDictionary
281
     1
  0
DICTIONARY
  5
D
102
{ACAD_REACTORS
330
C
102
}
330
C
100
AcDbDictionary
281
     1
  0
DICTIONARY
  5
1A
102
{ACAD_REACTORS
330
C
102
}
330
C
100
AcDbDictionary
281
     1
  3
Layout1
350
74
  3
Model
350
22
  0
DICTIONARY
  5
6B
102
{ACAD_REACTORS
330
C
102
}
330
C
100
AcDbDictionary
281
     1
  0
DICTIONARY
  5
17
102
{ACAD_REACTORS
330
C
102
}
330
C
100
AcDbDictionary
281
     1
  3
Standard
350
18
  0
DICTIONARY
  5
19
102
{ACAD_REACTORS
330
C
102
}
330
C
100
AcDbDictionary
281
     1
  0
ACDBDICTIONARYWDFLT
  5
E
102
{ACAD_REACTORS
330
C
102
}
330
C
100
AcDbDictionary
281
     1
  3
Normal
350
F
100
AcDbDictionaryWithDefault
340
F
  0
DICTIONARY
  5
92
102
{ACAD_REACTORS
330
C
102
}
330
C
100
AcDbDictionary
281
     1
  0
DICTIONARY
  5
59
102
{ACAD_REACTORS
330
C
102
}
330
C
100
AcDbDictionary
281
     1
  0
LAYOUT
  5
74
102
{ACAD_REACTORS
330
1A
102
}
330
1A
100
AcDbPlotSettings
  1

  2
None
  4
None
  6

 40
0.0
 41
0.0
 42
0.0
 43
0.0
 44
0.0
 45
0.0
 46
0.0
 47
0.0
 48
0.0
 49
0.0
140
0.0
141
0.0
142
1.0
143
1.0
 70
   688
 72
     0
 73
     0
 74
     5
  7

 75
    16
 76
     0
 77
     2
 78
   300
147
1.0
148
0.0
149
0.0
100
AcDbLayout
  1
Layout1
 70
     1
 71
     1
 10
0.0
 20
0.0
 11
0.0
 21
0.0
 12
0.0
 22
0.0
 32
0.0
 14
0.0
 24
0.0
 34
0.0
 15
0.0
 25
0.0
 35
0.0
146
0.0
 13
0.0
 23
0.0
 33
0.0
 16
1.0
 26
0.0
 36
0.0
 17
0.0
 27
1.0
 37
0.0
 76
     0
330
73
331
13C3
  0
LAYOUT
  5
22
102
{ACAD_REACTORS
330
1A
102
}
330
1A
100
AcDbPlotSettings
  1

  2
None
  4
None
  6

 40
0.0
 41
0.0
 42
0.0
 43
0.0
 44
0.0
 45
0.0
 46
0.0
 47
0.0
 48
0.0
 49
0.0
140
0.0
141
0.0
142
1.0
143
1.0
 70
 11952
 72
     0
 73
     0
 74
     0
  7

 75
     0
 76
     0
 77
     2
 78
   300
147
1.0
148
0.0
149
0.0
100
AcDbLayout
  1
Model
 70
     1
 71
     0
 10
0.0
 20
0.0
 11
12.0
 21
9.0
 12
0.0
 22
0.0
 32
0.0
 14
-91.00811432774199
 24
-1144.958905241865
 34
0.0
 15
4036.374090179946
 25
100.2859855676659
 35
0.0
146
0.0
 13
0.0
 23
0.0
 33
0.0
 16
1.0
 26
0.0
 36
0.0
 17
0.0
 27
1.0
 37
0.0
 76
     0
330
1F
  0
MLINESTYLE
  5
18
102
{ACAD_REACTORS
330
17
102
}
330
17
100
AcDbMlineStyle
  2
Standard
 70
     0
  3

 62
   256
 51
90.0
 52
90.0
 71
     2
 49
0.5
 62
   256
  6
BYLAYER
 49
-0.5
 62
   256
  6
BYLAYER
  0
ACDBPLACEHOLDER
  5
F
102
{ACAD_REACTORS
330
E
102
}
330
E
  0
ENDSEC
  0
SECTION
  2
THUMBNAILIMAGE
 90
    16364
310
28000000B40000005500000001000800000000000000000000000000000000000000000000000000FFFFFF000000FF0000FFFF0000FF0000FFFF0000FF000000FF00FF000000000080808000C0C0C0000000FF007F7FFF000000A5005252A50000007F003F3F7F0000004C0026264C000000260013132600003FFF007F9FFF
310
000029A5005267A500001F7F003F4F7F0000134C00262F4C000009260013172600007FFF007FBFFF000052A500527CA500003F7F003F5F7F0000264C0026394C0000132600131C260000BFFF007FDFFF00007CA5005291A500005F7F003F6F7F0000394C0026424C00001C26001321260000FFFF007FFFFF0000A5A50052A5
310
A500007F7F003F7F7F00004C4C00264C4C00002626001326260000FFBF007FFFDF0000A57C0052A59100007F5F003F7F6F00004C3900264C420000261C001326210000FF7F007FFFBF0000A5520052A57C00007F3F003F7F5F00004C2600264C39000026130013261C0000FF3F007FFF9F0000A5290052A56700007F1F003F
310
7F4F00004C1300264C2F00002609001326170000FF00007FFF7F0000A5000052A55200007F00003F7F3F00004C0000264C260000260000132613003FFF00009FFF7F0029A5000067A552001F7F00004F7F3F00134C00002F4C260009260000172613007FFF0000BFFF7F0052A500007CA552003F7F00005F7F3F00264C0000
310
394C2600132600001C261300BFFF0000DFFF7F007CA5000091A552005F7F00006F7F3F00394C0000424C26001C26000021261300FFFF0000FFFF7F00A5A50000A5A552007F7F00007F7F3F004C4C00004C4C26002626000026261300FFBF0000FFDF7F00A57C0000A59152007F5F00007F6F3F004C3900004C422600261C00
310
0026211300FF7F0000FFBF7F00A5520000A57C52007F3F00007F5F3F004C2600004C39260026130000261C1300FF3F0000FF9F7F00A5290000A56752007F1F00007F4F3F004C1300004C2F26002609000026171300FF000000FF7F7F00A5000000A55252007F0000007F3F3F004C0000004C2626002600000026131300FF00
310
3F00FF7F9F00A5002900A55267007F001F007F3F4F004C0013004C262F002600090026131700FF007F00FF7FBF00A5005200A5527C007F003F007F3F5F004C0026004C2639002600130026131C00FF00BF00FF7FDF00A5007C00A55291007F005F007F3F6F004C0039004C26420026001C0026132100FF00FF00FF7FFF00A5
310
00A500A552A5007F007F007F3F7F004C004C004C264C002600260026132600BF00FF00DF7FFF007C00A5009152A5005F007F006F3F7F0039004C0042264C001C002600211326007F00FF00BF7FFF005200A5007C52A5003F007F005F3F7F0026004C0039264C00130026001C1326003F00FF009F7FFF002900A5006752A500
310
1F007F004F3F7F0013004C002F264C000900260017132600000000002D2D2D005B5B5B0089898900B7B7B700B3B3B30000000000000000000000000000000000000000000000000000000000000000000000000000000000000000000000000000000000000000000000000000000000000000000000000000000000000000
310
00000000000000000000000000000000000000000000000000000000000000000000000000000000000000000000000000000000000000000000000000000000000000000000000000000000000000000000000000000000000000000000000000000000000000000000000000000000000000000000000000000000000000
310
00000000000000000000000000000000000000000000000000000000000000000000000000000000000000000000000000000000000000000000000000000000000000000000000000000000000000000000000000000000000000000000000000000000000000000000000000000000000000000000000000000000000000
310
00000000000000000000000000000000000000000000000000000000000000000000000000000000000000000000000000000000000000000000000000000000000000000000000000000000000000000000000000000000000000000000000000000000000000000000000000000000000000000000000000000000000000
310
00000000000000000000000000000000000000000000000000000000000000000000000000000000000000000000000000000000000000000000000000000000000000000000000000000000000000000000000000000000000000000000000000000000000000000000000000000000000000000000000000000000000000
310
00000000000000000000000000000000000000000000000000000000000000000000000000000000000000000000000000000000000000000000000000000000000000000000000000000000000000000000000000000000000000000000000000000000000000000000000000000000000000000000000000000000000000
310
00000000000000000000000000000000000000000000000000000000000000000000000000000000000000000000000000000000000000000000000000000000000000000000000000000000000000000000000000000000000000000000000000000000000000000000000000000000000000000000000000000000000000
310
00000000000000000000000000000000000000000000000000000000000000000000000000000000000000000000000000000000000000000000000000000000000000000000000000000000000000000000000000000000000000000000000000000000000000000000000000000000000000000000000000000000000000
310
00000000000000000000000000000000000000000000000000000000000000000000000000000000000000000000000000000000000000000000000000000000000000000000000000000000000000000000000000000000000000000000000000000000000000000000000000000000000000000000000000000000000000
310
00000000000000000000000000000000000000000000000000000000000000000000000000000000000000000000000000000000000000000000000000000000000000000000000000000000000000000000000000000000000000000000000000000000000000000000000000000000000000000000000000000000000000
310
00000000000000000000000000000000000000000000000000000000000000000000000000000000000000000000000000000000000000000000000000000000000000000000000000000000000000000000000000000000000000000000000000000000000000000000000000000000000000000000000000000000000000
310
00000000000000000000000000000000000000000000000000000000000000000000000000000000000000000000000000000000000000000000000000000000000000000000000000000000000000000000000000000000000000000000000000000000000000000000000000000000000000000000000000000000000000
310
00000000000000000000000000000000000000000000000000000000000000000000000000000000000000000000000000000000000000000000000000000000000000000000000000000000000000000000000000000000000000000000000000000000000000000000000000000000000000000000000000000000000000
310
00000000000000000000000000000000000000000000000000000000000000000000000000000000000000000000000000000000000000000000000000000000000000000000000000000000000000000000000000000000000000000000000000000000000000000000000000000000000000000000000000000000000000
310
00000000000000000000000000000000000000000000000000000000000000000000000000000000000000000000000000000000000000000000000000000000000000000000000000000000000000000000000000000000000000000000000000000000000000000000000000000000000000000000000000000000000000
310
00000000000000000000000000000000000000000000000000000000000000000000000000000000000000000000000000000000000000000000000000000000000000000000000000000000000000000000000000000000000000000000000000000000000000000000000000000000000000000000000000000000000000
310
00000000000000000000000000000000000000000000000000000000000000000000000000000000000000000000000000000000000000000000000000000000000000000000000000000000000000000000000000000000000000000000000000000000000000000000000000000000000000000000000000000000000000
310
00000000000000000000000000000000000000000000000000000000000000000000000000000000000000000000000000000000000000000000000000000000000000000000000000000000000000000000000000000000000000000000000000000000000000000000000000000000000000000000000000000000000000
310
00000000000000000000000000000000000000000000000000000000000000000000000000000000000000000000000000000000000000000000000000000000000000000000000000000000000000000000000000000000000000000000000000000000000000000000000000000000000000000000000000000000000000
310
00000000000000000000000000000000000000000000000000000000000000000000000000000000000000000000000000000000000000000000000000000000000000000000000000000000000000000000000000000000000000000000000000000000000000000000000000000000000000000000000000000000000000
310
00000000000000000000000000000000000000000000000000000000000000000000000000000000000000000000000000000000000000000000000000000000000000000000000000000000000000000000000000000000000000000000000000000000000000000000000000000000000000000000000000000000000000
310
00000000000000000000000000000000000000000000000000000000000000000000000000000000000000000000000000000000000000000000000000000000000000000000000000000000000000000000000000000000000000000000000000000000000000000000000000000000000000000000000000000000000000
310
00000000000000000000000000000000000000000000000000000000000000000000000000000000000000000000000000000000000000000000000000000000000000000000000000000000000000000000000000000000000000000000000000000000000000000000000000000000000000000000000000000000000000
310
00000000000000000000000000000000000000000000000000000000000000000000000000000000000000000000000000000000000000000000000000000000000000000000000000000000000000000000000000000000000000000000000000000000000000000000000000000000000000000000000000000000000000
310
00000000000000000000000000000000000000000000000000000000000000000000000000000000000000000000000000000000000000000000000000000000000000000000000000000000000000000000000000000000000000000000000000000000000000000000000000000000000000000000000000000000000000
310
00000000000000000000000000000000000000000000000000000000000000000000000000000000000000000000000000000000000000000000000000000000000000000000000000000000000000000000000000000000000000000000000000000000000000000000000000000000000000000000000000000000000000
310
00000000000000000000000000000000000000000000000000000000000000000000000000000000000000000000000000000000000000000000000000000000000000000000000000000000000000000000000000000000000000000000000000000000000000000000000000000000000000000000000000000000000000
310
00000000000000000000000000000000000000000000000000000000000000000000000000000000000000000000000000000000000000000000000000000000000000000000000000000000000000000000000000000000000000000000000000000000000000000000000000000000000000000000000000000000000000
310
00000000000000000000000000000000000000000000000000000000000000000000000000000000000000000000000000000000000000000000000000000000000000000000000000000000000000000000000000000000000000000000000000000000000000000000000000000000000000000000000000000000000000
310
00000000000000000000000000000000000000000000000000000000000000000000000000000000000000000000000000000000000000000000000000000000000000000000000000000000000000000000000000000000000000000000000000000000000000000000000000000000000000000000000000000000000000
310
00000000000000000000000000000000000000000000000000000000000000000000000000000000000000000000000000000000000000000000000000000000000000000000000000000000000000000000000000000000000000000000000000000000000000000000000000000000000000000000000000000000000000
310
00000000000000000000000000000000000000000000000000000000000000000000000000000000000000000000000000000000000000000000000000000000000000000000000000000000000000000000000000000000000000000000000000000000000000000000000000000000000000000000000000000000000000
310
00000000000000000000000000000000000000000000000000000000000000000000000000000000000000000000000000000000000000000000000000000000000000000000000000000000000000000000000000000000000000000000000000000000000000000000000000000000000000000000000000000000000000
310
00000000000000000000000000000000000000000000000000000000000000000000000000000000000000000000000000000000000000000000000000000000000000000000000000000000000000000000000000000000000000000000000000000000000000000000000000000000000000000000000000000000000000
310
00000000000000000000000000000000000000000000000000000000000000000000000000000000000000000000000000000000000000000000000000000000000000000000000000000000000000000000000000000000000000000000000000000000000000000000000000000000000000000000000000000000000000
310
00000000000000000000000000000000000000000000000000000000000000000000000000000000000000000000000000000000000000000000000000000000000000000000000000000000000000000000000000000000000000000000000000000000000000000000000000000000000000000000000000000000000000
310
00000000000000000000000000000000000000000000000000000000000000000000000000000000000000000000000000000000000000000000000000000000000000000000000000000000000000000000000000000000000000000000000000000000000000000000000000000000000000000000000000000000000000
310
00000000000000000000000000000000000000000000000000000000000000000000000000000000000000000000000000000000000000000000000000000000000000000000000000000000000000000000000000000000000000000000000000000000000000000000000000000000000000000000000000000000000000
310
00000000000000000000000000000000000000000000000000000000000000000000000000000000000000000000000000000000000000000000000000000000000000000000000000000000000000000000000000000000000000000000000000000000000000000000000000000000000000000000000000000000000000
310
00000000000000000000000000000000000000000000000000000000000000000000000000000000000000000000000000000000000000000000000000000000000000000000000000000000000000000000000000000000000000000000000000000000000000000000000000000000000000000000000000000000000000
310
00000000000000000000000000000000000000000000000000000000000000000000000000000000000000000000000000000000000000000000000000000000000000000000000000000000000000000000000000000000000000000000000000000000000000000000000000000000000000000000000000000000000000
310
00000000000000000000000000000000000000000000000000000000000000000000000000000000000000000000000000000000000000000000000000000000000000000000000000000000000000000000000000000000000000000000000000000000000000000000000000000000000000000000000000000000000000
310
00000000000000000000000000000000000000000000000000000000000000000000000000000000000000000000000000000000000000000000000000000000000000000000000000000000000000000000000000000000000000000000000000000000000000000000000000000000000000000000000000000000000000
310
00000000000000000000000000000000000000000000000000000000000000000000000000000000000000000000000000000000000000000000000000000000000000000000000000000000000000000000000000000000000000000000000000000000000000000000000000000000000000000000000000000000000000
310
00000000000000000000000000000000000000000000000000000000000000000000000000000000000000000000000000000000000000000000000000000000000000000000000000000000000000000000000000000000000000000000000000000000000000000000000000000000000000000000000000000000020202
310
02020202020202020202020202020202020202020202020202020202020202020202020202020202020202020200000000000000000000000000000000000000000000000000000000000000000000000000000000000000000000000000000000000000000000000000000000000000000000000000000000000000000000
310
00000000000000000000000000000000000000000000000000000000000000000000000000000000000000000000000000000200000000000000000000000000000000000000000000000000000000000000000000000000000000000000000000020000000000000000000000000000000000000000000000000000000000
310
00000000000000000000000000000000000000000000000000000000000000000000000000000000000000000000000000000000000000000000000000000000000000000000000000000000000000000000000000000000000000000000000000000000000000020000000000000000000000000000000000000000000000
310
00000000000000000000000000000000000000000000000200000000000000000000000000000000000000000000000000000000000000000000000000000000000000000000000000000000000000000000000000000000000000000000000000000000000000000000000000000000000000000000000000000000000000
310
00000000000000000000000000000000000000000000000000000000000200000000000000000000000000000000000000000000000000000000000000000000000000000000000000000000020000000000000000000000000000000000000000000000000000000000000000000000000000000000000000000000000000
310
00000000000000000000000000000000000000000000000000000000000000000000000000000000000000000000000000000000000000000000000000000000000000000000000000000000000000000000020000000000000000000000000000000000000000000000000000000000000000000000000000000000000000
310
00000200000000000000000000000000000000000000000000000000000000000000000000000000000000000000000000000000000000000000000000000000000000000000000000000000000000000000000000000000000000000000000000000000000000000000000000000000000000000000000000000000000000
310
00000000000000000200000000000000000000000000000000000000000000000000000000000000000000000000000000000000000000020000000000000000000000000000000000000000000000000000000000000000000000000000000000000000000000000000000000000000000000000000000000000000000000
310
00000000000000000000000000000000000000000000000000000000000000000000000000000000000000000000000000000000000000000000000000020000000000000000000000000000000000000000000000000000000000000000000000000000000000000000000002000000000000000000000000000000000000
310
00000000000000000000000000000000000000000000000000000000000000000000000000000000000000000000000000000000000000000000000000000000000000000000000000000000000000000000000000000000000000000000000000000000000000000000000000000000000002000000000000000000000000
310
00000000000000000000000000000000000000000000000000000000000000000000020000000000000000000000000000000000000000000000000000000000000000000000000000000000000000000000000000000000000000000000000000000000000000000000000000000000000000000000000000000000000000
310
00000000000000000000000000000000000000000000000000000000000000000000000000000000020000000000000000000000000000000000000000000000000000000000000000000000000000000000000000000002000000000000000000000000000000000000000000000000000000000000000000000000000000
310
00000000000000000000000000000000000000000000000000000000000000000000000000000000000000000000000000000000000000000000000000000000000000000000000000000000000000000000000000000000000000000002000000000000000000000000000000000000000000000000000000000000000000
310
00000000000000000000000000020000000000000000000000000000000000000000000000000000000000000000000000000000000000000000000000000000000000000000000000000000000000000000000000000000000000000000000000000000000000000000000000000000000000000000000000000000000000
310
00000000000000000000000000000000000000020000000000000000000000000000000000000000000000000000000000000000000000000000000000000000000002000000000000000000000000000000000000000000000000000000000000000000000000000000000000000000000000000000000000000000000000
310
00000000000000000000000000000000000000000000000000000000000000000000000000000000000000000000000000000000000000000000000000000000000000000000000002000000000000000000000000000000000000000000000000000000000000000000000000000000000000000000000200000000000000
310
00000000000000000000000000000000000000000000000000000000000000000000000000000000000000000000000000000000000000000000000000000000000000000000000000000000000000000000000000000000000000000000000000000000000000000000000000000000000000000000000000000000000200
310
00000000000000000000000000000000000000000000000000000000000000000000000000000000000000000002000000000000000000000000000000000000000000000000000000000000000000000000000000000000000000000000000000000000000000000000000000000000000000000000000000000000000000
310
00000000000000000000000000000000000000000000000000000000000000000000000000000000000007070707070707070702070707070707070707070707070707070707070707070707070707070707070707070707070707070707070707070207070707070707070707070707070700000000000000000000000000
310
00000000000000000000000000000000000000000000000000000000000000000000000000000000000000000000000000000000000000000000000000000000000000000000000000000000000000000000000000000000000000000007070000000000000000000000000000000000000000000000000000000000000000
310
00000000000000000000000000000000000000000000000000000000000000000000000000000007000000000000000000000000000000000000000000000000000000000000000000000000000000000000000000000000000000000000000000000000000000000000000000000000000000000000000000000000000000
310
00000000000000000000000000000000000007000000000000000707070707070707070707070707070707070707070707070707070707070707070707070707070707070707070707070707070707070707070707070707070000070000000000000000000000000000000000000000000000000000000000000000000000
310
00000000000000000000000000000000000000000000000000000000000000000000000000000000000000000000000000000000000000000000000000000000000000000007070000000000070707070707070707070707070707070707070707070707070707070707070707070707070707070707070707070707070707
310
07070707070707070707070707070707070700000000000000000000000000000000000000000000000000000000000000000000000000000000000000000000000000000000000000000000000000000000000000000000000000000000000000000000000000000000000000000000000000000000000000070000000000
310
07070707070707070707070707070707070707070707070707070707070707070707070707070707070707070700000000000000000007070707070700000000000000000707070000000000000000000000000000000000000000000000000000000000000000000000000000000000000000000000000000000000000000
310
00000000000000000000000000000000000000000000000000000000000000000000000000000000000000000000000700000007070707070707070707000000000707070700000000000000000000000000000000000000000007070707000000000000000000000000000000000000000707070000000000000700000000
310
00000000000000000000000000000000000000000000000000000000000000000000000000000000000000000000000000000000000000000000000000000000000000000000000000000000000000000000000000000000000000000000000000000000000700070707070707000000000007070707070707070707070707
310
07070707070707070707070707070707000000000000000000000000000000000000000000000000000000000000000700000000000000000000000000000000000000000000000000000000000000000000000000000000000000000000000000000000000000000000000000000000000000000000000000000000000000
310
00000000000000000000000000000000000000000000000000000007070707070700000000000000000000000000000000000000000000000000000000000000000000000000000000000000000000000000000000000000000000000000000000000000070000000000000000000000000000000000000000000000000000
310
00000000000000000000000000000000000000000000000000000000000000000000000000000000000000000000000000000000000000000000000000000000000000000000000000000000000000000007070700000000000000000000000000000000000000000000000000000000000000000000000000000000000000
310
00000000000000000000000000000000000000000000000000070000000000000000000000000000000000000000000000000000000000000000000000000000000000000000000000000000000000000000000000000000000000000000000000000000000000000000000000000000000000000000000000000000000000
310
00000000000000070000000000000000000000000000000000000000000000000000000000000000000000000000000000000000000000000000000000000000000000000000000000000000000700000000000000000000000000000000000000000000000000000000000000000000000000000000000000000000000000
310
00000000000000000000000000000000000000000000000000000000000000000000000000000000000000000000000000000000000000000000000000070707070707070707070707070707070707070707070707070707070707070707070707070707070707070707070707070707070707070707070707070707070707
310
07070700000000000000000000000000000000000000000000000000000000000000000000000000000000000000000000000000000000000000000000000000000000000000000000000000000000000000000000000000000000000000000000000000000000000000000000000000000000000000000000000000000000
310
00000000000000000000000000000000000000000000000000000000000000000000000000000000000000000000000000000000000000000000000000000000000000000000000000000000000000000000000000000000000000000000000000000000000000000000000000000000000000000000000000000000000000
310
00000000000000000000000000000000000000000000000000000000000000000000000000000000000000000000000000000000000000000000000000000000000000000000000000000000000000000000000000000000000000000000000000000000000000000000000000000000000000000000000000000000000000
310
00000000000000000000000000000000000000000000000000000000000000000000000000000000000000000000000000000000000000000000000000000000000000000000000000000000000000000000000000000000000000000000000000000000000000000000000000000000000000000000000000000000000000
310
00000000000000000000000000000000000000000000000000000000000000000000000000000000000000000000000000000000000000000000000000000000000000000000000000000000000000000000000000000000000000000000000000000000000000000000000000000000000000000000000000000000000000
310
00000000000000000000000000000000000000000000000000000000000000000000000000000000000000000000000000000000000000000000000000000000000000000000000000000000000000000000000000000000000000000000000000000000000000000000000000000000000000000000000000000000000000
310
00000000000000000000000000000000000000000000000000000000000000000000000000000000000000000000000000000000000000000000000000000000000000000000000000000000000000000000000000000000000000000000000000000000000000000000000000000000000000000000000000000000000000
310
00000000000000000000000000000000000000000000000000000000000000000000000000000000000000000000000000000000000000000000000000000000000000000000000000000000000000000000000000000000000000000000000000000000000000000000000000000000000000000000000000000000000000
310
00000000000000000000000000000000000000000000000000000000000000000000000000000000000000000000000000000000000000000000000000000000000000000000000000000000000000000000000000000000000000000000000000000000000000000000000000000000000000000000000000000000000000
310
00000000000000000000000000000000000000000000000000000000000000000000000000000000000000000000000000000000000000000000000000000000000000000000000000000000000000000000000000000000000000000000000000000000000000000000000000000000000000000000000000000000000000
310
00000000000000000000000000000000000000000000000000000000000000000000000000000000000000000000000000000000000000000000000000000000000000000000000000000000000000000000000000000000000000000000000000000000000000000000000000000000000000000000000000000000000000
310
00000000000000000000000000000000000000000000000000000000000000000000000000000000000000000000000000000000000000000000000000000000000000000000000000000000000000000000000000000000000000000000000000000000000000000000000000000000000000000000000000000000000000
310
00000000000000000000000000000000000000000000000000000000000000000000000000000000000000000000000000000000000000000000000000000000000000000000000000000000000000000000000000000000000000000000000000000000000000000000000000000000000000000000000000000000000000
310
00000000000000000000000000000000000000000000000000000000000000000000000000000000000000000000000000000000000000000000000000000000000000000000000000000000000000000000000000000000000000000000000000000000000000000000000000000000000000000000000000000000000000
310
00000000000000000000000000000000000000000000000000000000000000000000000000000000000000000000000000000000000000000000000000000000000000000000000000000000000000000000000000000000000000000000000000000000000000000000000000000000000000000000000000000000000000
310
00000000000000000000000000000000000000000000000000000000000000000000000000000000000000000000000000000000000000000000000000000000000000000000000000000000000000000000000000000000000000000000000000000000000000000000000000000000000000000000000000000000000000
310
00000000000000000000000000000000000000000000000000000000000000000000000000000000000000000000000000000000000000000000000000000000000000000000000000000000000000000000000000000000000000000000000000000000000000000000000000000000000000000000000000000000000000
310
00000000000000000000000000000000000000000000000000000000000000000000000000000000000000000000000000000000000000000000000000000000000000000000000000000000000000000000000000000000000000000000000000000000000000000000000000000000000000000000000000000000000000
310
00000000000000000000000000000000000000000000000000000000000000000000000000000000000000000000000000000000000000000000000000000000000000000000000000000000000000000000000000000000000000000000000000000000000000000000000000000000000000000000000000000000000000
310
00000000000000000000000000000000000000000000000000000000000000000000000000000000000000000000000000000000000000000000000000000000000000000000000000000000000000000000000000000000000000000000000000000000000000000000000000000000000000000000000000000000000000
310
00000000000000000000000000000000000000000000000000000000000000000000000000000000000000000000000000000000000000000000000000000000000000000000000000000000000000000000000000000000000000000000000000000000000000000000000000000000000000000000000000000000000000
310
00000000000000000000000000000000000000000000000000000000000000000000000000000000000000000000000000000000000000000000000000000000000000000000000000000000000000000000000000000000000000000000000000000000000000000000000000000000000000000000000000000000000000
310
00000000000000000000000000000000000000000000000000000000000000000000000000000000000000000000000000000000000000000000000000000000000000000000000000000000000000000000000000000000000000000000000000000000000000000000000000000000000000000000000000000000000000
310
00000000000000000000000000000000000000000000000000000000000000000000000000000000000000000000000000000000000000000000000000000000000000000000000000000000000000000000000000000000000000000000000000000000000000000000000000000000000000000000000000000000000000
310
00000000000000000000000000000000000000000000000000000000000000000000000000000000000000000000000000000000000000000000000000000000000000000000000000000000000000000000000000000000000000000000000000000000000000000000000000000000000000000000000000000000000000
310
00000000000000000000000000000000000000000000000000000000000000000000000000000000000000000000000000000000000000000000000000000000000000000000000000000000000000000000000000000000000000000000000000000000000000000000000000000000000000000000000000000000000000
310
00000000000000000000000000000000000000000000000000000000000000000000000000000000000000000000000000000000000000000000000000000000000000000000000000000000000000000000000000000000000000000000000000000000000000000000000000000000000000000000000000000000000000
310
00000000000000000000000000000000000000000000000000000000000000000000000000000000000000000000000000000000000000000000000000000000000000000000000000000000000000000000000000000000000000000000000000000000000000000000000000000000000000000000000000000000000000
310
00000000000000000000000000000000000000000000000000000000000000000000000000000000000000000000000000000000000000000000000000000000000000000000000000000000000000000000000000000000000000000000000000000000000000000000000000000000000000000000000000000000000000
310
00000000000000000000000000000000000000000000000000000000000000000000000000000000000000000000000000000000000000000000000000000000000000000000000000000000000000000000000000000000000000000000000000000000000000000000000000000000000000000000000000000000000000
310
00000000000000000000000000000000000000000000000000000000000000000000000000000000000000000000000000000000000000000000000000000000000000000000000000000000000000000000000000000000000000000000000000000000000000000000000000000000000000000000000000000000000000
310
00000000000000000000000000000000000000000000000000000000000000000000000000000000000000000000000000000000000000000000000000000000000000000000000000000000000000000000000000000000000000000000000000000000000000000000000000000000000000000000000000000000000000
310
00000000000000000000000000000000000000000000000000000000000000000000000000000000000000000000000000000000000000000000000000000000000000000000000000000000000000000000000000000000000000000000000000000000000000000000000000000000000000000000000000000000000000
310
00000000000000000000000000000000000000000000000000000000000000000000000000000000000000000000000000000000000000000000000000000000000000000000000000000000000000000000000000000000000000000000000000000000000000000000000000000000000000000000000000000000000000
310
00000000000000000000000000000000000000000000000000000000000000000000000000000000000000000000000000000000000000000000000000000000000000000000000000000000000000000000000000000000000000000000000000000000000000000000000000000000000000000000000000000000000000
310
00000000000000000000000000000000000000000000000000000000000000000000000000000000000000000000000000000000000000000000000000000000000000000000000000000000000000000000000000000000000000000000000000000000000000000000000000000000000000000000000000000000000000
310
00000000000000000000000000000000000000000000000000000000000000000000000000000000000000000000000000000000000000000000000000000000000000000000000000000000000000000000000000000000000000000000000000000000000000000000000000000000000000000000000000000000000000
310
00000000000000000000000000000000000000000000000000000000000000000000000000000000000000000000000000000000000000000000000000000000000000000000000000000000000000000000000000000000000000000000000000000000000000000000000000000000000000000000000000000000000000
310
00000000000000000000000000000000000000000000000000000000000000000000000000000000000000000000000000000000000000000000000000000000000000000000000000000000000000000000000000000000000000000000000000000000000000000000000000000000000000000000000000000000000000
310
00000000000000000000000000000000000000000000000000000000000000000000000000000000000000000000000000000000000000000000000000000000000000000000000000000000000000000000000000000000000000000000000000000000000000000000000000000000000000000000000000000000000000
310
00000000000000000000000000000000000000000000000000000000000000000000000000000000000000000000000000000000000000000000000000000000000000000000000000000000000000000000000000000000000000000000000000000000000000000000000000000000000000000000000000000000000000
310
00000000000000000000000000000000000000000000000000000000000000000000000000000000000000000000000000000000000000000000000000000000000000000000000000000000000000000000000000000000000000000000000000000000000000000000000000000000000000000000000000000000000000
310
000000000000000000000000000000000000000000000000000000000000000000000000000000000000000000000000000000000000000000000000000000000000000000000000000000000000000000000000000000000000000000000000000000000000000000000000
  0
ENDSEC
  0
EOF
